BitTorrentTracker PerecTracker.org
BitTorrentTracker PerecTracker.org
    
Регистрация  ·  Вход
 
 · 
Забыли пароль?

  • Последний магнат / The Last Tycoon (Элиа Казан) [1976, США, драма, WEB-DL HD (720p)] MVO, AVO , Original + SUB (eng, eng sdh)

    Ответить на тему
     
    Автор Сообщение

    Flirldrerve

    Создавать темы 23-Дек-2015 12:15

           

    [Цитировать]

    Последний магнат / The Last Tycoon
    "He has the power to make anyone's dream come true... except his own"
    6.859 / 10
    -Год выпуска: 1976
    Страна: США
    Жанр: драма
    Продолжительность: 123 мин.
    Перевод: Многоголосый закадровый перевод и одноголосый закадровый авторский перевод
    Оригинальная аудиодорожка: Есть
    Cубтитры: Английские полные и английские полные SDH
    Режиссёр: Элиа Казан
    Сценарий: Гарольд Пинтер, Фрэнсис Скотт Фицджеральд
    Продюсер: Сэм Шпигель
    Оператор: Виктор Дж. Кемпер
    Композитор: Морис Жарр
    Художник: Джин Каллахан, Джек Т. Коллис, Анна Хилл Джонстоун
    Монтаж: Ричард Маркс
    В ролях: Роберт Де Ниро, Тони Кертис, Роберт Митчем, Жанна Моро, Джек Николсон, Дональд Плезенс, Рэй Милланд, Дэна Эндрюс, Ингрид Боултинг, Питер Штраусс
    Бюджет: $5 500 000
    Сборы в США: $1 819 912
    Мировая премьера: 15 ноября 1976
    Описание: Экранизация незаконченного романа о Голливуде Фрэнсиса Скотта Фицджералда, а именно, о вымышленном киномагнате Монро Старе, под которым легко угадывается Ирвинг Талберг, известный своей самоотверженностью в работе.-Качество исходника: WEB-DL 720p (HDClub)
    Качество: WEB-DL
    Тип: 720p
    Контейнер: m4v
    Видео: 1280x720 at 23.976 fps, MPEG-4 AVC, ~3900 kbps avg
    Аудио#1: Russian: 48 kHz, ААС, 2/0 (L,R), ~160.00 kbps avg |Многоголосый закадровый, НТВ+|
    Аудио#2: Russian: 48 kHz, ААС, 2/0 (L,R), ~160.00 kbps avg |Многоголосый закадровый
    Аудио#3: Russian: 48 kHz, ААС, 2/0 (L,R), ~160.00 kbps avg |Одноголосый закадровый, Леонид Володарский|
    Аудио#4: English: 48 kHz, ААС, 2/0 (L,R), ~160.00 kbps avg
    Субтитры №1: English: |Полные|
    Субтитры №2: English: |Полные, SDH|-

    Знаете ли Вы, что...

    • Сэм Шпигель хотел видеть в роли Монро Стара Джека Николсона, но Элиа Казан настоял на Роберте Де Ниро.
    • Роман Фицджеральда, по которому снят фильм, был написан только наполовину и обрывается буквально на полуслове. Фицджеральд умер в декабре 1940 года, в возрасте 44 лет, за столом над рукописью «Последнего магната».

    -

    iTunes Meta Tags for country us

    Name: The Last Tycoon
    Artist: Elia Kazan
    Genre: Drama
    Release Date: 1976-11-15T08:00:00Z
    Description: Экранизация незаконченного романа о Голливуде Фрэнсиса Скотта Фицджералда, а именно, о вымышленном киномагнате Монро Старе, под которым легко угадывается Ирвинг Талберг, известный своей самоотверженностью в работе.
    Long Description: Экранизация незаконченного романа о Голливуде Фрэнсиса Скотта Фицджералда, а именно, о вымышленном киномагнате Монро Старе, под которым легко угадывается Ирвинг Талберг, известный своей самоотверженностью в работе.
    Rating: PG
    Studio: Paramount
    Cast: Роберт Де Ниро, Тони Кертис, Роберт Митчем, Жанна Моро, Джек Николсон, Дональд Плезенс, Рэй Милланд, Дэна Эндрюс, Ингрид Боултинг, Питер Штраусс
    Director: Элиа Казан
    Producers: Сэм Шпигель
    Screenwriters: Гарольд Пинтер, Фрэнсис Скотт Фицджеральд
    contentID: 296404333
    XID: Apple:vendor_id:1976-4210
    Sort Name: Last Tycoon

    MediaInfo 720p Release

    General
    Complete name : The Last Tycoon (HD).m4v
    Format : MPEG-4
    Codec ID : M4V
    File size : 3.81 GiB
    Duration : 2h 3mn
    Overall bit rate mode : Variable
    Overall bit rate : 4 428 Kbps
    Movie name : The Last Tycoon
    Performer : Elia Kazan
    Director : Элиа Казан
    Actor : Роберт Де Ниро / Тони Кертис / Роберт Митчем / Жанна Моро / Джек Николсон / Дональд Плезенс / Рэй Милланд / Дэна Эндрюс / Ингрид Боултинг / Питер Штраусс
    Screenplay by : Гарольд Пинтер / Фрэнсис Скотт Фицджеральд
    Producer : Сэм Шпигель
    Production studio : Paramount
    Genre : Drama
    ContentType : Short Film
    Description : Экранизация незаконченного романа о Голливуде Фрэнсиса Скотта Фицджералда, а именно, о вымышленном киномагнате Монро Старе, под которым легко угадывается Ирвинг Талберг, известный своей самоотверженностью в работе.
    Recorded date : UTC 1976-11-15 08:00:00
    Encoded date : UTC 2015-11-10 14:24:43
    Tagged date : UTC 2015-11-10 14:30:24
    Cover : Yes
    Rating : None
    Title/Sort : Last Tycoon
    LongDescription : Экранизация незаконченного романа о Голливуде Фрэнсиса Скотта Фицджералда, а именно, о вымышленном киномагнате Монро Старе, под которым легко угадывается Ирвинг Талберг, известный своей самоотверженностью в работе.
    HDVideo : Yes
    AppleStoreCatalogID : 296404333
    Vendor : Apple:vendor_id:1976-4210
    ContentRating : mpaa|PG|200|
    Video
    ID : 1
    Format : AVC
    Format/Info : Advanced Video Codec
    Format profile : High@L3.1
    Format settings, CABAC : No
    Format settings, ReFrames : 2 frames
    Format settings, GOP : N=1
    Codec ID : avc1
    Codec ID/Info : Advanced Video Coding
    Duration : 2h 3mn
    Bit rate : 3 909 Kbps
    Width : 1 280 pixels
    Height : 720 pixels
    Display aspect ratio : 16:9
    Frame rate mode : Variable
    Frame rate : 23.976 fps
    Minimum frame rate : 23.810 fps
    Maximum frame rate : 24.390 fps
    Color space : YUV
    Chroma subsampling : 4:2:0
    Bit depth : 8 bits
    Scan type : Progressive
    Bits/(Pixel*Frame) : 0.177
    Stream size : 3.36 GiB (88%)
    Title : Main Program
    Language : English
    Encoded date : UTC 2015-11-10 14:24:43
    Tagged date : UTC 2015-11-10 14:29:04
    Color range : Limited
    Color primaries : BT.709
    Transfer characteristics : BT.709
    Matrix coefficients : BT.709
    Audio #1
    ID : 2
    Format : AAC
    Format/Info : Advanced Audio Codec
    Format profile : LC
    Codec ID : 40
    Duration : 2h 3mn
    Bit rate mode : Variable
    Bit rate : 144 Kbps
    Maximum bit rate : 200 Kbps
    Channel(s) : 2 channels
    Channel positions : Front: L R
    Sampling rate : 48.0 KHz
    Compression mode : Lossy
    Stream size : 127 MiB (3%)
    Title : Russian MVO HTB+ Stereo
    Language : Russian
    Encoded date : UTC 2015-11-10 14:24:43
    Tagged date : UTC 2015-11-10 14:24:50
    Audio #2
    ID : 3
    Format : AAC
    Format/Info : Advanced Audio Codec
    Format profile : LC
    Codec ID : 40
    Duration : 2h 3mn
    Bit rate mode : Variable
    Bit rate : 124 Kbps
    Maximum bit rate : 154 Kbps
    Channel(s) : 2 channels
    Channel positions : Front: L R
    Sampling rate : 48.0 KHz
    Compression mode : Lossy
    Stream size : 110 MiB (3%)
    Title : Russian MVO Stereo
    Language : Russian
    Encoded date : UTC 2015-11-10 14:24:43
    Tagged date : UTC 2015-11-10 14:24:50
    Audio #3
    ID : 4
    Format : AAC
    Format/Info : Advanced Audio Codec
    Format profile : LC
    Codec ID : 40
    Duration : 2h 3mn
    Bit rate mode : Variable
    Bit rate : 122 Kbps
    Maximum bit rate : 132 Kbps
    Channel(s) : 2 channels
    Channel positions : Front: L R
    Sampling rate : 48.0 KHz
    Compression mode : Lossy
    Stream size : 108 MiB (3%)
    Title : Russian AVO S.Vizgunov Stereo
    Language : Russian
    Encoded date : UTC 2015-11-10 14:24:43
    Tagged date : UTC 2015-11-10 14:24:50
    Audio #4
    ID : 5
    Format : AAC
    Format/Info : Advanced Audio Codec
    Format profile : LC
    Codec ID : 40
    Duration : 2h 3mn
    Bit rate mode : Variable
    Bit rate : 117 Kbps
    Maximum bit rate : 130 Kbps
    Channel(s) : 2 channels
    Channel positions : Front: L R
    Sampling rate : 48.0 KHz
    Compression mode : Lossy
    Stream size : 103 MiB (3%)
    Title : English Stereo
    Language : English
    Encoded date : UTC 2015-11-10 14:24:43
    Tagged date : UTC 2015-11-10 14:29:04
    Text #1
    ID : 6
    Format : Timed Text
    Muxing mode : sbtl
    Codec ID : tx3g
    Duration : 2h 0mn
    Bit rate mode : Variable
    Bit rate : 53 bps
    Stream size : 46.9 KiB (0%)
    Title : English Subtitle
    Language : English
    Encoded date : UTC 2015-11-10 14:24:43
    Tagged date : UTC 2015-11-10 14:24:43
    Text #2
    ID : 7
    Format : Timed Text
    Muxing mode : sbtl
    Codec ID : tx3g
    Duration : 2h 0mn
    Bit rate mode : Variable
    Bit rate : 63 bps
    Stream size : 55.5 KiB (0%)
    Title : Engish SDH Subtitle
    Language : English
    Encoded date : UTC 2015-11-10 14:24:43
    Tagged date : UTC 2015-11-10 14:24:43

    Скриншоты 720p Release

    -

    Релиз подготовлен для просмотра на Apple TV, iPad, iPhone, iPod Touch.
    Для просмотра данного релиза на компьютере с ОС Windows рекомендуется использовать VLC media player
    Скачать .torrent

    Скачать торрент-файл бесплатно и на максимальной скорости!

    Как скачивать? · Что такое торрент? · Рейтинг и ограничения

    !ВНИМАНИЕ!
    Сайт не распространяет и не хранит электронные версии произведений, а занимается лишь лишь предоставлением доступа к создаваемому пользователями каталогу ссылок на торрент-файлы, которые содержат только списки хеш-сумм, убедительная просьба с жалобами обращаться напрямую к пользователю. Файлы для обмена на трекере предоставлены пользователями сайта, и администрация не несёт ответственности за их содержание. Просьба не заливать файлы, защищенные авторскими правами, а также файлы нелегального содержания!


    _________________
    [Профиль] [ЛС]
    Показать сообщения:    
    Ответить на тему

    Текущее время: Сегодня, в 14:49

    Часовой пояс: GMT + 2



    Вы не можете начинать темы
    Вы не можете отвечать на сообщения
    Вы не можете редактировать свои сообщения
    Вы не можете удалять свои сообщения
    Вы не можете голосовать в опросах
    Вы не можете прикреплять файлы к сообщениям
    Вы не можете скачивать файлы