BitTorrentTracker PerecTracker.org
BitTorrentTracker PerecTracker.org
    
Регистрация  ·  Вход
 
 · 
Забыли пароль?

  • Поющий по кабакам / Honkytonk Man (Клинт Иствуд) [1982, США, драма, комедия, вестерн, музыка, WEB-DL HD (720p)] MVO, AVO, Original + SUB (rus, eng)

    Ответить на тему
     
    Автор Сообщение

    Flirldrerve

    Создавать темы 23-Дек-2015 12:15

           

    [Цитировать]

    Поющий по кабакам / Honkytonk Man
    "The boy is on his way to becoming a man. The man is on his way to becoming a legend"
    6.955 / 10
    -Год выпуска: 1982
    Страна: США
    Жанр: драма, комедия, вестерн, музыка
    Продолжительность: 122 мин.
    Перевод: Многоголосый закадровый перевод и одноголосый закадровый авторский перевод
    Оригинальная аудиодорожка: Есть
    Cубтитры: Русские полные и английские полные
    Режиссёр: Клинт Иствуд
    Сценарий: Клэнси Карлайл
    Продюсер: Клинт Иствуд, Фритц Мэйнс
    Оператор: Брюс Сёртис
    Композитор: Стив Дорфф
    Художник: Эдвард С. Карфанго, Гари Морено
    Монтаж: Джоэль Кокс, Майкл Келли, Феррис Уэбстер
    В ролях: Клинт Иствуд, Кайл Иствуд, Джон МакИнтайр, Алекса Кенин, Верна Блум, Мэтт Кларк, Бэрри Корбин, Джерри Хардин, Тим Томерсон, Макон МакКалман
    Сборы в США: $4 484 991
    Мировая премьера: 15 декабря 1982
    Описание: Человек может отказаться от всего, но не от мечты. Подросток из семьи фермеров со Среднего Запада Америки начала ХХ-го века не хочет, как его предки, гнуть спину на хлопковых полях. Он мечтает изменить свою жизнь. И готов бороться за свою мечту...
    Уит, выросший в семье фермеров-переселенцев, мечтает вырваться из привычной кабалы быта. Случай приводит к ним его дядю по матери Реда Стовэлла - бродягу, выпивоху, талантливого музыканта и певца в стиле "кантри".
    Он направляется в город Нэшвилл, где его ждет прослушивание и, возможно, контракт. Это могло бы изменить его жизнь. Ред разглядел в мальчишке задатки музыканта и предлагает Уиту поехать с ним - попытать счастья...-Качество исходника: WEB-DL 720p (HDClub)
    Качество: WEB-DL
    Тип: 720p
    Контейнер: m4v
    Видео: 1270x720 at 23.976 fps, MPEG-4 AVC, ~4100 kbps avg
    Аудио#1: Russian: 48 kHz, ААС, 2/0 (L,R), ~160.00 kbps avg |Многоголосый закадровый|
    Аудио#2: Russian: 48 kHz, ААС, 2/0 (L,R), ~160.00 kbps avg |Одноголосый закадровый, А. Кашкин|
    Аудио#3: English: 48 kHz, ААС, 2/0 (L,R), ~160.00 kbps avg
    Аудио#4: English: 48 kHz, AC3, 3/2 (L,C,R,l,r) + LFE ch, ~384.00 kbps avg
    Субтитры №1: Russian: |Полные|
    Субтитры №2: English: |Полные|-

    iTunes Meta Tags for country ru

    Name: Поющий по Кабакам
    Artist: Clint Eastwood
    Genre: Comedy
    Release Date: 1982-12-15T08:00:00Z
    Description: Человек может отказаться от всего, но не от мечты. Подросток из семьи фермеров со Среднего Запада Америки начала ХХ-го века не хочет, как его предки, гнуть спину на хлопковых полях. Он мечтает изменить свою жизнь. И готов бороться за свою мечту...
    Long Description: Человек может отказаться от всего, но не от мечты. Подросток из семьи фермеров со Среднего Запада Америки начала ХХ-го века не хочет, как его предки, гнуть спину на хлопковых полях. Он мечтает изменить свою жизнь. И готов бороться за свою мечту...
    Уит, выросший в семье фермеров-переселенцев, мечтает вырваться из привычной кабалы быта. Случай приводит к ним его дядю по матери Реда Стовэлла - бродягу, выпивоху, талантливого музыканта и певца в стиле "кантри".
    Он направляется в город Нэшвилл, где его ждет прослушивание и, возможно, контракт. Это могло бы изменить его жизнь. Ред разглядел в мальчишке задатки музыканта и предлагает Уиту поехать с ним - попытать счастья...
    Rating: 6+
    Studio: Warner Bros.
    Cast: Клинт Иствуд, Кайл Иствуд, Джон МакИнтайр, Алекса Кенин, Верна Блум, Мэтт Кларк, Бэрри Корбин, Джерри Хардин, Тим Томерсон, Макон МакКалман
    Director: Клинт Иствуд
    Producers: Клинт Иствуд, Фритц Мэйнс
    Screenwriters: Клэнси Карлайл
    Copyright: © 1982 Warner Bros. Entertainment Inc. Все права защищены.
    contentID: 564535357
    XID: Apple:vendor_id:1982-10848
    Sort Name: Поющий по Кабакам

    iTunes Meta Tags for country us

    Name: Honkytonk Man
    Artist: Clint Eastwood
    Genre: Comedy
    Release Date: 1982-12-15T08:00:00Z
    Description: Человек может отказаться от всего, но не от мечты. Подросток из семьи фермеров со Среднего Запада Америки начала ХХ-го века не хочет, как его предки, гнуть спину на хлопковых полях. Он мечтает изменить свою жизнь. И готов бороться за свою мечту...
    Long Description: Человек может отказаться от всего, но не от мечты. Подросток из семьи фермеров со Среднего Запада Америки начала ХХ-го века не хочет, как его предки, гнуть спину на хлопковых полях. Он мечтает изменить свою жизнь. И готов бороться за свою мечту...
    Уит, выросший в семье фермеров-переселенцев, мечтает вырваться из привычной кабалы быта. Случай приводит к ним его дядю по матери Реда Стовэлла - бродягу, выпивоху, талантливого музыканта и певца в стиле "кантри".
    Он направляется в город Нэшвилл, где его ждет прослушивание и, возможно, контракт. Это могло бы изменить его жизнь. Ред разглядел в мальчишке задатки музыканта и предлагает Уиту поехать с ним - попытать счастья...
    Rating: PG
    Studio: WarnerBrosEnt
    Cast: Клинт Иствуд, Кайл Иствуд, Джон МакИнтайр, Алекса Кенин, Верна Блум, Мэтт Кларк, Бэрри Корбин, Джерри Хардин, Тим Томерсон, Макон МакКалман
    Director: Клинт Иствуд
    Producers: Клинт Иствуд, Фритц Мэйнс
    Screenwriters: Клэнси Карлайл
    Copyright: © 1982 Warner Bros. Entertainment Inc. All Rights Reserved.
    contentID: 354936406
    XID: Apple:vendor_id:1982-10848
    Sort Name: Honkytonk Man

    MediaInfo 720p Release

    General
    Complete name : Honkytonk Man (HD).m4v
    Format : MPEG-4
    Codec ID : M4V
    File size : 4.29 GiB
    Duration : 2h 2mn
    Overall bit rate mode : Variable
    Overall bit rate : 4 989 Kbps
    Movie name : Honkytonk Man
    Performer : Clint Eastwood
    Director : Клинт Иствуд
    Actor : Клинт Иствуд / Кайл Иствуд / Джон МакИнтайр / Алекса Кенин / Верна Блум / Мэтт Кларк / Бэрри Корбин / Джерри Хардин / Тим Томерсон / Макон МакКалман
    Screenplay by : Клэнси Карлайл
    Producer : Клинт Иствуд / Фритц Мэйнс
    Production studio : WarnerBrosEnt
    Genre : Comedy
    ContentType : Short Film
    Description : Человек может отказаться от всего, но не от мечты. Подросток из семьи фермеров со Среднего Запада Америки начала ХХ-го века не хочет, как его предки, гнуть спину на хлопковых полях. Он мечтает изменить свою жизнь. И готов бороться за свою мечту...
    Recorded date : UTC 1982-12-15 08:00:00
    Encoded date : UTC 2015-11-11 08:04:02
    Tagged date : UTC 2015-11-11 08:24:26
    Copyright : © 1982 Warner Bros. Entertainment Inc. All Rights Reserved.
    Cover : Yes
    Rating : None
    Title/Sort : Honkytonk Man
    LongDescription : Человек может отказаться от всего, но не от мечты. Подросток из семьи фермеров со Среднего Запада Америки начала ХХ-го века не хочет, как его предки, гнуть спину на хлопковых полях. Он мечтает изменить свою жизнь. И готов бороться за свою мечту... / Уит, выросший в семье фермеров-переселенцев, мечтает вырваться из привычной кабалы быта. Случай приводит к ним его дядю по матери Реда Стовэлла - бродягу, выпивоху, талантливого музыканта и певца в стиле "кантри". / Он направляется в город Нэшвилл, где его ждет прослушивание и, возможно, контракт. Это могло бы изменить его жизнь. Ред разглядел в мальчишке задатки музыканта и предлагает Уиту поехать с ним - попытать счастья...
    HDVideo : Yes
    AppleStoreCatalogID : 354936406
    Vendor : Apple:vendor_id:1982-10848
    ContentRating : mpaa|PG|200|
    Video
    ID : 1
    Format : AVC
    Format/Info : Advanced Video Codec
    Format profile : High@L3.1
    Format settings, CABAC : No
    Format settings, ReFrames : 2 frames
    Codec ID : avc1
    Codec ID/Info : Advanced Video Coding
    Duration : 2h 2mn
    Bit rate : 4 113 Kbps
    Width : 1 270 pixels
    Height : 720 pixels
    Display aspect ratio : 16:9
    Frame rate mode : Variable
    Frame rate : 23.976 fps
    Minimum frame rate : 23.810 fps
    Maximum frame rate : 24.390 fps
    Color space : YUV
    Chroma subsampling : 4:2:0
    Bit depth : 8 bits
    Scan type : Progressive
    Bits/(Pixel*Frame) : 0.188
    Stream size : 3.53 GiB (82%)
    Title : Main Program
    Language : English
    Encoded date : UTC 2015-11-11 08:04:02
    Tagged date : UTC 2015-11-11 08:10:27
    Color range : Limited
    Color primaries : BT.709
    Transfer characteristics : BT.709
    Matrix coefficients : BT.709
    Audio #1
    ID : 2
    Format : AAC
    Format/Info : Advanced Audio Codec
    Format profile : LC
    Codec ID : 40
    Duration : 2h 2mn
    Bit rate mode : Variable
    Bit rate : 157 Kbps
    Maximum bit rate : 240 Kbps
    Channel(s) : 2 channels
    Channel positions : Front: L R
    Sampling rate : 48.0 KHz
    Compression mode : Lossy
    Stream size : 138 MiB (3%)
    Title : Russian MVO Stereo
    Language : Russian
    Encoded date : UTC 2015-11-11 08:04:02
    Tagged date : UTC 2015-11-11 08:04:09
    Audio #2
    ID : 3
    Format : AAC
    Format/Info : Advanced Audio Codec
    Format profile : LC
    Codec ID : 40
    Duration : 2h 2mn
    Bit rate mode : Variable
    Bit rate : 162 Kbps
    Maximum bit rate : 259 Kbps
    Channel(s) : 2 channels
    Channel positions : Front: L R
    Sampling rate : 48.0 KHz
    Compression mode : Lossy
    Stream size : 143 MiB (3%)
    Title : Russian AVO A.Kashkin Stereo
    Language : Russian
    Encoded date : UTC 2015-11-11 08:04:02
    Tagged date : UTC 2015-11-11 08:04:09
    Audio #3
    ID : 4
    Format : AAC
    Format/Info : Advanced Audio Codec
    Format profile : LC
    Codec ID : 40
    Duration : 2h 2mn
    Bit rate mode : Variable
    Bit rate : 163 Kbps
    Maximum bit rate : 250 Kbps
    Channel(s) : 2 channels
    Channel positions : Front: L R
    Sampling rate : 48.0 KHz
    Compression mode : Lossy
    Stream size : 143 MiB (3%)
    Title : English Stereo
    Language : English
    Encoded date : UTC 2015-11-11 08:04:02
    Tagged date : UTC 2015-11-11 08:04:09
    Audio #4
    ID : 5
    Format : AC-3
    Format/Info : Audio Coding 3
    Mode extension : CM (complete main)
    Format settings, Endianness : Big
    Codec ID : ac-3
    Duration : 2h 2mn
    Bit rate mode : Constant
    Bit rate : 384 Kbps
    Channel(s) : 6 channels
    Channel positions : Front: L C R, Side: L R, LFE
    Sampling rate : 48.0 KHz
    Bit depth : 16 bits
    Compression mode : Lossy
    Stream size : 338 MiB (8%)
    Title : English DD 5.1
    Language : English
    Encoded date : UTC 2015-11-11 08:04:02
    Tagged date : UTC 2015-11-11 08:10:27
    Text #1
    ID : 6
    Format : Timed Text
    Muxing mode : sbtl
    Codec ID : tx3g
    Duration : 1h 59mn
    Bit rate mode : Variable
    Bit rate : 92 bps
    Stream size : 81.1 KiB (0%)
    Title : Russian Subtitle
    Language : Russian
    Encoded date : UTC 2015-11-11 08:04:02
    Tagged date : UTC 2015-11-11 08:04:03
    Text #2
    ID : 7
    Format : Timed Text
    Muxing mode : sbtl
    Codec ID : tx3g
    Duration : 1h 59mn
    Bit rate mode : Variable
    Bit rate : 60 bps
    Stream size : 52.4 KiB (0%)
    Title : English Subtitle
    Language : English
    Encoded date : UTC 2015-11-11 08:04:02
    Tagged date : UTC 2015-11-11 08:04:03

    Скриншоты 720p Release

    -

    Релиз подготовлен для просмотра на Apple TV, iPad, iPhone, iPod Touch.
    Для просмотра данного релиза на компьютере с ОС Windows рекомендуется использовать VLC media player
    Скачать .torrent

    Скачать торрент-файл бесплатно и на максимальной скорости!

    Как скачивать? · Что такое торрент? · Рейтинг и ограничения

    !ВНИМАНИЕ!
    Сайт не распространяет и не хранит электронные версии произведений, а занимается лишь лишь предоставлением доступа к создаваемому пользователями каталогу ссылок на торрент-файлы, которые содержат только списки хеш-сумм, убедительная просьба с жалобами обращаться напрямую к пользователю. Файлы для обмена на трекере предоставлены пользователями сайта, и администрация не несёт ответственности за их содержание. Просьба не заливать файлы, защищенные авторскими правами, а также файлы нелегального содержания!


    _________________
    [Профиль] [ЛС]
    Показать сообщения:    
    Ответить на тему

    Текущее время: Сегодня, в 16:18

    Часовой пояс: GMT + 2



    Вы не можете начинать темы
    Вы не можете отвечать на сообщения
    Вы не можете редактировать свои сообщения
    Вы не можете удалять свои сообщения
    Вы не можете голосовать в опросах
    Вы не можете прикреплять файлы к сообщениям
    Вы не можете скачивать файлы