BitTorrentTracker PerecTracker.org
BitTorrentTracker PerecTracker.org
    
Регистрация  ·  Вход
 
 · 
Забыли пароль?

  • [ATV3] Бумажные города / Paper Towns (Джейк Шрейер / Jake Schreier ) [2015, США, Мелодрама, детектив, комедия, BDRip, HD (1080p)] DUB + Original + sub (rus, eng, ukr)

    Ответить на тему
     
    Автор Сообщение

    Flirldrerve

    Создавать темы 23-Дек-2015 12:15

           

    [Цитировать]

    Бумажные города / Paper Towns
    «Найди меня»
    6.165 / 10 6.50 / 10
    -Год выпуска: 2015
    Страна: США
    Жанр: Мелодрама, детектив, комедия
    Продолжительность: 01:49:05
    Перевод: Дублированный (iTunes)
    Оригинальная аудиодорожка: Есть
    Cубтитры: Русские форсированные, Русские, Английские, Украинские
    Режиссёр: Джейк Шрейер
    Сценарий: Джон Грин, Скотт Нейстадтер, Майкл Х. Уэбер
    Продюсер: Марти Бауэн, Вик Годфри, Джон Грин
    Оператор: Дэвид Ланценберг
    Композитор: Сон Люкс
    Художник: Крис Л. Спэллман, Джэми Уокер МакКолл, Мэри Клер Хэннан
    Монтаж: Джейкоб Крэйкрофт, Дженнифер Лэйм
    В ролях: Нат Вулф, Кара Делевинь, Остин Абрамс, Джастис Смит, Холстон Сейдж, Жасмин Сабино, Кара Буоно, Джозиа Серио, Ханна Аллигуд, Мэг Кросби
    Бюджет: $12 000 000
    Сборы в США: $32 000 304
    Сборы в мире: + $53 511 996 = $85 512 300
    Сборы в России: $989 561
    Мировая премьера: 18 июня 2015
    Премьера (РФ): 23 июля 2015, «Двадцатый Век Фокс СНГ»
    Описание: Выпускник школы Кью Джейкобсен с детских лет тайно влюблен в свою прекрасную и дерзкую соседку Марго Рот Шпигельманн. Поэтому, когда однажды ночью она приглашает его принять участие в «карательной операции» против ее обидчиков, он соглашается. Но, придя в школу после их ночного приключения, Кью узнает, что Марго исчезла… оставив для него лишь таинственные послания, которые он должен разгадать, чтобы найти девушку.-Качество исходника: BDRemux (HDCLub)
    Качество: BDRip
    Тип: HD (1080p)
    Контейнер: M4V
    Видео: H.264, 1920x800, 2.40:1, 8 000 Kbps, 23.976 fps
    Аудио 1: Русский/Дублированный (iTunes), AAC / 2.0 / 156 Kbps / 48.0 KHz
    Аудио 2: Английский/Оригинальная дорожка , AAC / 2.0 / 156 Kbps / 48.0 KHz
    Аудио 3: Русский/Дублированный (iTunes), AC-3 / 5.1 / 384 Kbps / 48.0 KHz
    Аудио 4: Английский/Оригинальная дорожка , AC-3 / 5.1 / 640 Kbps / 48.0 KHz
    Субтитры 1: Русские форсированные
    Субтитры 2: Русские полные
    Субтитры 3: Английские полные
    Субтитры 4: Украинские полные
    -

    iTunes Meta Tags

    Sort Name: Paper Towns
    XID: Apple:vendor_id:2015-841572
    contentID: 1012038553
    Copyright: © 2015 Twentieth Century Fox Film Corporation. All rights reserved.
    Screenwriters: Джон Грин, Майкл Х. Уэбер, Скотт Нейстадтер
    Producers: Марти Бауэн, Вик Годфри
    Director: Джейк Шрейер
    Cast: Нат Вулф, Кара Делевинь, Остин Абрамс, Джастис Смит, Холстон Сейдж, Жасмин Сабино, Кара Буоно, Джозиа Серио, Ханна Аллигуд, Мэг Кросби, Том Хилльманн, Сьюзан Миллер
    Studio: 20th Century Fox
    Rating Annotation: Rated PG-13 for some language, drinking, sexuality and partial nudity - all involving teens.
    Rating: 4
    Long Description: Выпускник школы Кью Джейкобсен с детских лет тайно влюблен в свою прекрасную и дерзкую соседку Марго Рот Шпигельманн. Поэтому, когда однажды ночью она приглашает его принять участие в «карательной операции» против ее обидчиков, он соглашается. Но, придя в школу после их ночного приключения, Кью узнает, что Марго исчезла... оставив для него лишь таинственные послания, которые он должен разгадать, чтобы найти девушку.
    Description: Выпускник школы Кью Джейкобсен с детских лет тайно влюблен в свою прекрасную и дерзкую соседку Марго Рот Шпигельманн. Поэтому, когда однажды ночью она приглашает его принять участие в «карательной операции» против ее обидчиков, он соглашается...
    Release Date: 2015-06-18T08:00:00Z
    Genre: Drama
    Artist: Jake Schreier
    Name: Paper Towns

    MediaInfo

    General
    Complete name : /Users/imac/HandBrake/Paper Towns (1080p HD).m4v
    Format : MPEG-4
    Codec ID : M4V
    File size : 7.12 GiB
    Duration : 1h 49mn
    Overall bit rate mode : Variable
    Overall bit rate : 9 347 Kbps
    Movie name : Paper Towns
    Performer : Jake Schreier
    Director : Джейк Шрейер
    Actor : Нат Вулф / Кара Делевинь / Остин Абрамс / Джастис Смит / Холстон Сейдж / Жасмин Сабино / Кара Буоно / Джозиа Серио / Ханна Аллигуд / Мэг Кросби / Том Хилльманн / Сьюзан Миллер
    Screenplay by : Джон Грин / Майкл Х. Уэбер / Скотт Нейстадтер
    Producer : Марти Бауэн / Вик Годфри
    Production studio : 20th Century Fox
    Genre : Drama
    ContentType : Short Film
    Description : Выпускник школы Кью Джейкобсен с детских лет тайно влюблен в свою прекрасную и дерзкую соседку Марго Рот Шпигельманн. Поэтому, когда однажды ночью она приглашает его принять участие в «карательной операции» против ее обидчиков, он соглашается...
    Recorded date : UTC 2015-06-18 08:00:00
    Encoded date : UTC 2015-11-13 21:00:22
    Tagged date : UTC 2015-11-13 21:01:00
    Copyright : © 2015 Twentieth Century Fox Film Corporation. All rights reserved.
    Cover : Yes
    Rating : None
    Title/Sort : Paper Towns
    LongDescription : Выпускник школы Кью Джейкобсен с детских лет тайно влюблен в свою прекрасную и дерзкую соседку Марго Рот Шпигельманн. Поэтому, когда однажды ночью она приглашает его принять участие в «карательной операции» против ее обидчиков, он соглашается. Но, придя в школу после их ночного приключения, Кью узнает, что Марго исчезла... оставив для него лишь таинственные послания, которые он должен разгадать, чтобы найти девушку.
    AppleStoreCatalogID : 1012038553
    Vendor : Apple:vendor_id:2015-841572
    ContentRating : mpaa|PG-13|300|Rated PG-13 for some language, drinking, sexuality and partial nudity - all involving teens.
    Video #1
    ID : 1
    Format : AVC
    Format/Info : Advanced Video Codec
    Format profile : High@L4
    Format settings, CABAC : Yes
    Format settings, ReFrames : 4 frames
    Codec ID : avc1
    Codec ID/Info : Advanced Video Coding
    Duration : 1h 49mn
    Source duration : 1h 49mn
    Bit rate : 8 000 Kbps
    Width : 1 920 pixels
    Height : 800 pixels
    Display aspect ratio : 2.40:1
    Frame rate mode : Variable
    Frame rate : 23.976 fps
    Minimum frame rate : 23.974 fps
    Maximum frame rate : 23.981 fps
    Color space : YUV
    Chroma subsampling : 4:2:0
    Bit depth : 8 bits
    Scan type : Progressive
    Bits/(Pixel*Frame) : 0.217
    Stream size : 6.10 GiB (86%)
    Source stream size : 6.10 GiB (86%)
    Title : Main Program
    Writing library : x264 core 142 r2479 dd79a61
    Encoding settings : cabac=1 / ref=4 / deblock=1:-2:-2 / analyse=0x3:0x133 / me=umh / subme=10 / psy=1 / psy_rd=1.00:0.15 / mixed_ref=1 / me_range=32 / chroma_me=1 / trellis=2 / 8x8dct=1 / cqm=0 / deadzone=21,11 / fast_pskip=0 / chroma_qp_offset=-3 / threads=36 / lookahead_threads=6 / sliced_threads=0 / nr=0 / decimate=0 / interlaced=0 / bluray_compat=0 / constrained_intra=0 / bframes=16 / b_pyramid=2 / b_adapt=2 / b_bias=0 / direct=3 / weightb=1 / open_gop=0 / weightp=2 / keyint=240 / keyint_min=24 / scenecut=40 / intra_refresh=0 / rc_lookahead=60 / rc=2pass / mbtree=1 / bitrate=8000 / ratetol=1.0 / qcomp=0.70 / qpmin=0 / qpmax=69 / qpstep=4 / cplxblur=20.0 / qblur=0.5 / vbv_maxrate=25000 / vbv_bufsize=25000 / nal_hrd=none / filler=0 / ip_ratio=1.40 / aq=1:1.00
    Encoded date : UTC 2015-11-13 21:00:22
    Tagged date : UTC 2015-11-13 21:00:46
    Color range : Limited
    Color primaries : BT.709
    Transfer characteristics : BT.709
    Matrix coefficients : BT.709
    Video #2
    ID : 11
    Format : JPEG
    Codec ID : jpeg
    Duration : 1h 49mn
    Bit rate mode : Variable
    Bit rate : 1 044 bps
    Width : 640 pixels
    Height : 266 pixels
    Display aspect ratio : 2.40:1
    Frame rate mode : Variable
    Frame rate : 0.004 fps
    Minimum frame rate : 0.002 fps
    Maximum frame rate : 0.008 fps
    Color space : YUV
    Chroma subsampling : 4:2:0
    Bit depth : 8 bits
    Compression mode : Lossy
    Bits/(Pixel*Frame) : 1.533
    Stream size : 892 KiB (0%)
    Encoded date : UTC 2015-11-13 21:00:59
    Tagged date : UTC 2015-11-13 21:01:00
    Audio #1
    ID : 2
    Format : AAC
    Format/Info : Advanced Audio Codec
    Format profile : LC
    Codec ID : 40
    Duration : 1h 49mn
    Bit rate mode : Variable
    Bit rate : 156 Kbps
    Maximum bit rate : 242 Kbps
    Channel(s) : 2 channels
    Channel positions : Front: L R
    Sampling rate : 48.0 KHz
    Compression mode : Lossy
    Stream size : 122 MiB (2%)
    Title : Russian Stereo
    Language : Russian
    Encoded date : UTC 2015-11-13 21:00:22
    Tagged date : UTC 2015-11-13 21:00:47
    Audio #2
    ID : 3
    Format : AAC
    Format/Info : Advanced Audio Codec
    Format profile : LC
    Codec ID : 40
    Duration : 1h 49mn
    Bit rate mode : Variable
    Bit rate : 156 Kbps
    Maximum bit rate : 267 Kbps
    Channel(s) : 2 channels
    Channel positions : Front: L R
    Sampling rate : 48.0 KHz
    Compression mode : Lossy
    Stream size : 122 MiB (2%)
    Title : English Stereo
    Language : English
    Encoded date : UTC 2015-11-13 21:00:22
    Tagged date : UTC 2015-11-13 21:00:47
    Audio #3
    ID : 4
    Format : AC-3
    Format/Info : Audio Coding 3
    Mode extension : CM (complete main)
    Format settings, Endianness : Big
    Codec ID : ac-3
    Duration : 1h 49mn
    Bit rate mode : Constant
    Bit rate : 384 Kbps
    Channel(s) : 6 channels
    Channel positions : Front: L C R, Side: L R, LFE
    Sampling rate : 48.0 KHz
    Bit depth : 16 bits
    Compression mode : Lossy
    Stream size : 300 MiB (4%)
    Title : Russian DD 5.1
    Language : Russian
    Encoded date : UTC 2015-11-13 21:00:22
    Tagged date : UTC 2015-11-13 21:00:27
    Audio #4
    ID : 5
    Format : AC-3
    Format/Info : Audio Coding 3
    Mode extension : CM (complete main)
    Format settings, Endianness : Big
    Codec ID : ac-3
    Duration : 1h 49mn
    Bit rate mode : Constant
    Bit rate : 640 Kbps
    Channel(s) : 6 channels
    Channel positions : Front: L C R, Side: L R, LFE
    Sampling rate : 48.0 KHz
    Bit depth : 16 bits
    Compression mode : Lossy
    Stream size : 499 MiB (7%)
    Title : English DD 5.1
    Language : English
    Encoded date : UTC 2015-11-13 21:00:22
    Tagged date : UTC 2015-11-13 21:00:27
    Text #1
    ID : 6
    Format : Timed Text
    Muxing mode : sbtl
    Codec ID : tx3g
    Duration : 1h 48mn
    Bit rate mode : Variable
    Bit rate : 0 bps
    Stream size : 384 Bytes (0%)
    Title : Russian forced
    Language : Russian
    Encoded date : UTC 2015-11-13 21:00:22
    Tagged date : UTC 2015-11-13 21:00:22
    Text #2
    ID : 7
    Format : Timed Text
    Muxing mode : sbtl
    Codec ID : tx3g
    Duration : 1h 48mn
    Bit rate mode : Variable
    Bit rate : 100 bps
    Stream size : 79.7 KiB (0%)
    Title : Russian full
    Language : Russian
    Encoded date : UTC 2015-11-13 21:00:22
    Tagged date : UTC 2015-11-13 21:00:22
    Text #3
    ID : 8
    Format : Timed Text
    Muxing mode : sbtl
    Codec ID : tx3g
    Duration : 1h 44mn
    Bit rate mode : Variable
    Bit rate : 77 bps
    Stream size : 58.6 KiB (0%)
    Title : English full
    Language : English
    Encoded date : UTC 2015-11-13 21:00:22
    Tagged date : UTC 2015-11-13 21:00:22
    Text #4
    ID : 9
    Format : Timed Text
    Muxing mode : sbtl
    Codec ID : tx3g
    Duration : 1h 48mn
    Bit rate mode : Variable
    Bit rate : 103 bps
    Stream size : 82.5 KiB (0%)
    Title : Ukrainian full
    Language : Ukrainian
    Encoded date : UTC 2015-11-13 21:00:22
    Tagged date : UTC 2015-11-13 21:00:22
    Menu #1
    00:00:00.000 : Chapter 1
    00:03:59.239 : Chapter 2
    00:06:03.280 : Chapter 3
    00:09:06.713 : Chapter 4
    00:11:11.462 : Chapter 5
    00:13:35.148 : Chapter 6
    00:18:08.296 : Chapter 7
    00:22:26.095 : Chapter 8
    00:27:34.361 : Chapter 9
    00:31:17.834 : Chapter 10
    00:33:18.830 : Chapter 11
    00:37:51.394 : Chapter 12
    00:40:44.067 : Chapter 13
    00:43:56.634 : Chapter 14
    00:48:08.886 : Chapter 15
    00:50:20.184 : Chapter 16
    00:54:39.276 : Chapter 17
    00:59:02.539 : Chapter 18
    01:02:54.396 : Chapter 19
    01:06:58.014 : Chapter 20
    01:13:01.168 : Chapter 21
    01:16:49.021 : Chapter 22
    01:21:41.605 : Chapter 23
    01:26:22.177 : Chapter 24
    01:33:31.231 : Chapter 25
    01:36:36.582 : Chapter 26
    01:39:33.050 : Chapter 27
    01:42:30.770 : Chapter 28
    Menu #2
    ID : 10
    Codec ID : text
    Duration : 1h 49mn
    Language : English
    Encoded date : UTC 2015-11-13 21:00:47
    Tagged date : UTC 2015-11-13 21:00:47
    00:00:00.000 : Chapter 1
    00:03:59.239 : Chapter 2
    00:06:03.280 : Chapter 3
    00:09:06.713 : Chapter 4
    00:11:11.462 : Chapter 5
    00:13:35.148 : Chapter 6
    00:18:08.296 : Chapter 7
    00:22:26.095 : Chapter 8
    00:27:34.361 : Chapter 9
    00:31:17.834 : Chapter 10
    00:33:18.830 : Chapter 11
    00:37:51.394 : Chapter 12
    00:40:44.067 : Chapter 13
    00:43:56.634 : Chapter 14
    00:48:08.886 : Chapter 15
    00:50:20.184 : Chapter 16
    00:54:39.276 : Chapter 17
    00:59:02.539 : Chapter 18
    01:02:54.396 : Chapter 19
    01:06:58.014 : Chapter 20
    01:13:01.168 : Chapter 21
    01:16:49.021 : Chapter 22
    01:21:41.605 : Chapter 23
    01:26:22.177 : Chapter 24
    01:33:31.231 : Chapter 25
    01:36:36.582 : Chapter 26
    01:39:33.050 : Chapter 27
    01:42:30.770 : Chapter 28
    Bit rate mode : VBR

    x264 лог

    x264 [info]: frame I:1052  Avg QP:11.75  size:214479
    x264 [info]: frame P:35364 Avg QP:14.16  size: 83073
    x264 [info]: frame B:120520 Avg QP:14.82  size: 28060
    x264 [info]: consecutive B-frames:  2.0%  3.2%  5.3% 38.4% 12.9% 18.5%  7.5% 10.6%  0.7%  0.1%  0.1%  0.5%  0.0%  0.0%  0.0%  0.0%  0.0%
    x264 [info]: mb I  I16..4: 18.0% 60.8% 21.2%
    x264 [info]: mb P  I16..4:  2.0% 15.6%  1.8%  P16..4: 35.5% 24.6% 17.2%  1.1%  0.6%    skip: 1.6%
    x264 [info]: mb B  I16..4:  0.1%  1.2%  0.1%  B16..8: 41.6% 17.0%  4.4%  direct: 6.2%  skip:29.4%  L0:46.1% L1:40.4% BI:13.5%
    x264 [info]: 8x8 transform intra:78.9% inter:32.0%
    x264 [info]: direct mvs  spatial:99.3% temporal:0.7%
    x264 [info]: coded y,uvDC,uvAC intra: 92.9% 82.7% 73.3% inter: 29.5% 22.7% 13.8%
    x264 [info]: i16 v,h,dc,p: 16%  8% 28% 48%
    x264 [info]: i8 v,h,dc,ddl,ddr,vr,hd,vl,hu: 13% 11% 21%  8%  9% 10%  9% 10% 11%
    x264 [info]: i4 v,h,dc,ddl,ddr,vr,hd,vl,hu: 12% 10%  6%  9% 14% 14% 12% 11% 12%
    x264 [info]: i8c dc,h,v,p: 58% 16% 15% 12%
    x264 [info]: Weighted P-Frames: Y:1.9% UV:0.7%
    x264 [info]: ref P L0: 54.9%  6.5% 26.2% 11.5%  0.8%  0.0%
    x264 [info]: ref B L0: 85.9% 11.6%  2.5%
    x264 [info]: ref B L1: 92.8%  7.2%
    x264 [info]: kb/s:7999.58

    Скриншоты

    -

    Релиз подготовлен для просмотра на Apple TV, iPad, iPhone, iPod Touch.
    Для просмотра данного релиза на компьютере с ОС Windows рекомендуется использовать VLC media player
    Скачать .torrent

    Скачать торрент-файл бесплатно и на максимальной скорости!

    Как скачивать? · Что такое торрент? · Рейтинг и ограничения

    !ВНИМАНИЕ!
    Сайт не распространяет и не хранит электронные версии произведений, а занимается лишь лишь предоставлением доступа к создаваемому пользователями каталогу ссылок на торрент-файлы, которые содержат только списки хеш-сумм, убедительная просьба с жалобами обращаться напрямую к пользователю. Файлы для обмена на трекере предоставлены пользователями сайта, и администрация не несёт ответственности за их содержание. Просьба не заливать файлы, защищенные авторскими правами, а также файлы нелегального содержания!


    _________________
    [Профиль] [ЛС]
    Показать сообщения:    
    Ответить на тему

    Текущее время: Сегодня, в 18:25

    Часовой пояс: GMT + 2



    Вы не можете начинать темы
    Вы не можете отвечать на сообщения
    Вы не можете редактировать свои сообщения
    Вы не можете удалять свои сообщения
    Вы не можете голосовать в опросах
    Вы не можете прикреплять файлы к сообщениям
    Вы не можете скачивать файлы