BitTorrentTracker PerecTracker.org
BitTorrentTracker PerecTracker.org
    
Регистрация  ·  Вход
 
 · 
Забыли пароль?

  • [ATV3] Скорость: Автобус 657 / Heist (Скотт Манн / Scott Mann ) [2015, США, Боевик, триллер, WEB-DL, HD (1080p)] DUB + Original + sub (eng)

    Ответить на тему
     
    Автор Сообщение

    Flirldrerve

    Создавать темы 23-Дек-2015 12:15

           

    [Цитировать]

    Скорость: Автобус 657 / Heist
    «Её жизнь дороже его смерти»
    6.999 / 10 6.10 / 10
    -Год выпуска: 2015
    Страна: США
    Жанр: Боевик, триллер
    Продолжительность: 01:32:05
    Перевод: Дублированный (iTunes)
    Оригинальная аудиодорожка: Есть
    Cубтитры: SRT English (PlayNow), Russian (forced hardsub)
    Режиссёр: Скотт Манн
    Сценарий: Стивен Сефер, Макс Адамс
    Продюсер: Рэндолл Эмметт, Джордж Фурла, Уэйн Марк Годфри
    Оператор: Брэндон Ли Кокс
    Композитор: Джеймс Эдвард Баркер, Тим Деспич
    Художник: Томас Уильям Хэллбауэр, Жасмин Гарнет, Rachel Stringfellow
    Монтаж: Роберт Далва
    В ролях: Джеффри Дин Морган, Роберт Де Ниро, Кейт Босворт, Дэйв Батиста, Джина Карано, Марк-Пол Госселаар, Моррис Честнат, Саммер Элтис, Д.Б. Суини, Джошуа Микель
    Бюджет: $22 000 000
    Сборы в России: $380 764
    Мировая премьера: 11 ноября 2015
    Премьера (РФ): 12 ноября 2015, «Парадиз»
    Описание: Все знают, что обокрасть Фрэнка Поупа, владельца казино и босса мафии — это самоубийство. Но однажды некогда преданный ему крупье решается вынести из кассы казино несколько миллионов долларов. Все было продумано, но план не сработал. Скрываясь с места преступления, грабители захватывают автобус, полный заложников. На бешеной скорости автобус мчится к мексиканской границе. Топливо на пределе. На хвосте — мафия и полиция. И, кажется, выхода нет…-Качество исходника: WEB-DL 1080p (BlueBird)
    Качество: WEB-DL
    Тип: HD (1080p)
    Контейнер: M4V
    Видео: H.264, 1920x804, 2.40:1, 4 304 Kbps, 24.000 fps
    Аудио 1: Русский/Дублированный (iTunes), AAC / 2.0 / 157 Kbps / 48.0 KHz
    Аудио 2: Английский/Оригинальная дорожка , AAC / 2.0 / 157 Kbps / 48.0 KHz
    Аудио 3: Русский/Дублированный (iTunes), AC-3 / 5.1 / 384 Kbps / 48.0 KHz
    Аудио 4: Английский/Оригинальная дорожка , AC-3 / 5.1 / 384 Kbps / 48.0 KHz
    Субтитры 1: Английские полные
    Субтитры 2: Русские (forced hardsub)-

    iTunes Meta Tags

    Sort Name: Heist
    XID: Apple:vendor_id:2015-807377
    contentID: 1046669305
    Screenwriters: Стивен Сефер, Макс Адамс
    Producers: Рэндолл Эмметт, Джордж Фурла, Уэйн Марк Годфри
    Director: Скотт Манн
    Cast: Джеффри Дин Морган, Роберт Де Ниро, Кейт Босворт, Дэйв Батиста, Джина Карано, Марк-Пол Госселаар, Моррис Честнат, Д.Б. Суини, Саммер Элтис, Лидия Халл, Джошуа Микель
    Studio: Lionsgate Premiere
    Rating Annotation: Rated R for violence, pervasive language and some sexual content.
    Rating: 5
    Long Description: Все знают, что обокрасть Фрэнка Поупа, владельца казино и босса мафии - это самоубийство. Но однажды некогда преданный ему крупье решается вынести из кассы казино несколько миллионов долларов. Все было продумано, но план не сработал. Скрываясь с места преступления, грабители захватывают автобус, полный заложников. На бешеной скорости автобус мчится к мексиканской границе. Топливо на пределе. На хвосте - мафия и полиция. И, кажется, выхода нет...
    Description: Все знают, что обокрасть Фрэнка Поупа, владельца казино и босса мафии - это самоубийство. Но однажды некогда преданный ему крупье решается вынести из кассы казино несколько миллионов долларов. Все было продумано, но план не сработал...
    Release Date: 2015-11-11T08:00:00Z
    Genre: Action & Adventure
    Artist: Scott Mann
    Name: Heist

    MediaInfo

    General
    Complete name : /Users/imac/HandBrake/Heist.WEB-DL.1080p.m4v
    Format : MPEG-4
    Codec ID : M4V
    File size : 3.47 GiB
    Duration : 1h 32mn
    Overall bit rate mode : Variable
    Overall bit rate : 5 393 Kbps
    Movie name : Heist
    Performer : Scott Mann
    Director : Скотт Манн
    Actor : Джеффри Дин Морган / Роберт Де Ниро / Кейт Босворт / Дэйв Батиста / Джина Карано / Марк-Пол Госселаар / Моррис Честнат / Д.Б. Суини / Саммер Элтис / Лидия Халл / Джошуа Микель
    Screenplay by : Стивен Сефер / Макс Адамс
    Producer : Рэндолл Эмметт / Джордж Фурла / Уэйн Марк Годфри
    Production studio : Lionsgate Premiere
    Genre : Action & Adventure
    ContentType : Short Film
    Description : Все знают, что обокрасть Фрэнка Поупа, владельца казино и босса мафии - это самоубийство. Но однажды некогда преданный ему крупье решается вынести из кассы казино несколько миллионов долларов. Все было продумано, но план не сработал...
    Recorded date : UTC 2015-11-11 08:00:00
    Encoded date : UTC 2015-11-21 11:13:08
    Tagged date : UTC 2015-11-21 11:25:55
    Cover : Yes
    Rating : None
    Title/Sort : Heist
    LongDescription : Все знают, что обокрасть Фрэнка Поупа, владельца казино и босса мафии - это самоубийство. Но однажды некогда преданный ему крупье решается вынести из кассы казино несколько миллионов долларов. Все было продумано, но план не сработал. Скрываясь с места преступления, грабители захватывают автобус, полный заложников. На бешеной скорости автобус мчится к мексиканской границе. Топливо на пределе. На хвосте - мафия и полиция. И, кажется, выхода нет...
    AppleStoreCatalogID : 1046669305
    Vendor : Apple:vendor_id:2015-807377
    ContentRating : mpaa|R|400|Rated R for violence, pervasive language and some sexual content.
    Video #1
    ID : 1
    Format : AVC
    Format/Info : Advanced Video Codec
    Format profile : High@L4
    Format settings, CABAC : Yes
    Format settings, ReFrames : 5 frames
    Codec ID : avc1
    Codec ID/Info : Advanced Video Coding
    Duration : 1h 32mn
    Bit rate : 4 304 Kbps
    Width : 1 920 pixels
    Height : 804 pixels
    Display aspect ratio : 2.40:1
    Frame rate mode : Constant
    Frame rate : 24.000 fps
    Color space : YUV
    Chroma subsampling : 4:2:0
    Bit depth : 8 bits
    Scan type : Progressive
    Bits/(Pixel*Frame) : 0.116
    Stream size : 2.77 GiB (80%)
    Title : Main Program
    Language : English
    Encoded date : UTC 2015-11-21 11:13:08
    Tagged date : UTC 2015-11-21 11:13:15
    Color range : Limited
    Color primaries : BT.709
    Transfer characteristics : BT.709
    Matrix coefficients : BT.709
    Video #2
    ID : 8
    Format : JPEG
    Codec ID : jpeg
    Duration : 1h 32mn
    Bit rate mode : Variable
    Bit rate : 755 bps
    Width : 640 pixels
    Height : 268 pixels
    Display aspect ratio : 2.40:1
    Frame rate mode : Variable
    Frame rate : 0.002 fps
    Minimum frame rate : 0.002 fps
    Maximum frame rate : 0.007 fps
    Color space : YUV
    Chroma subsampling : 4:2:0
    Bit depth : 8 bits
    Compression mode : Lossy
    Bits/(Pixel*Frame) : 2.201
    Stream size : 507 KiB (0%)
    Title : Chapter Images
    Language : English
    Encoded date : UTC 2015-11-21 11:13:20
    Tagged date : UTC 2015-11-21 11:13:20
    Audio #1
    ID : 2
    Format : AAC
    Format/Info : Advanced Audio Codec
    Format profile : LC
    Codec ID : 40
    Duration : 1h 32mn
    Bit rate mode : Variable
    Bit rate : 157 Kbps
    Maximum bit rate : 216 Kbps
    Channel(s) : 2 channels
    Channel positions : Front: L R
    Sampling rate : 48.0 KHz
    Compression mode : Lossy
    Stream size : 103 MiB (3%)
    Title : Russian Stereo
    Language : Russian
    Encoded date : UTC 2015-11-21 11:13:08
    Tagged date : UTC 2015-11-21 11:13:17
    Audio #2
    ID : 3
    Format : AAC
    Format/Info : Advanced Audio Codec
    Format profile : LC
    Codec ID : 40
    Duration : 1h 32mn
    Bit rate mode : Variable
    Bit rate : 157 Kbps
    Maximum bit rate : 233 Kbps
    Channel(s) : 2 channels
    Channel positions : Front: L R
    Sampling rate : 48.0 KHz
    Compression mode : Lossy
    Stream size : 103 MiB (3%)
    Title : English Stereo
    Language : English
    Encoded date : UTC 2015-11-21 11:13:08
    Tagged date : UTC 2015-11-21 11:13:17
    Audio #3
    ID : 4
    Format : AC-3
    Format/Info : Audio Coding 3
    Mode extension : CM (complete main)
    Format settings, Endianness : Big
    Codec ID : ac-3
    Duration : 1h 32mn
    Bit rate mode : Constant
    Bit rate : 384 Kbps
    Channel(s) : 6 channels
    Channel positions : Front: L C R, Side: L R, LFE
    Sampling rate : 48.0 KHz
    Bit depth : 16 bits
    Compression mode : Lossy
    Stream size : 253 MiB (7%)
    Title : Russian DD 5.1
    Language : Russian
    Encoded date : UTC 2015-11-21 11:13:08
    Tagged date : UTC 2015-11-21 11:13:16
    Audio #4
    ID : 5
    Format : AC-3
    Format/Info : Audio Coding 3
    Mode extension : CM (complete main)
    Format settings, Endianness : Big
    Codec ID : ac-3
    Duration : 1h 32mn
    Bit rate mode : Constant
    Bit rate : 384 Kbps
    Channel(s) : 6 channels
    Channel positions : Front: L C R, Side: L R, LFE
    Sampling rate : 48.0 KHz
    Bit depth : 16 bits
    Compression mode : Lossy
    Stream size : 253 MiB (7%)
    Title : English DD 5.1
    Language : English
    Encoded date : UTC 2015-11-21 11:13:08
    Tagged date : UTC 2015-11-21 11:13:16
    Text
    ID : 6
    Format : Timed Text
    Muxing mode : sbtl
    Codec ID : tx3g
    Duration : 1h 25mn
    Bit rate mode : Variable
    Bit rate : 84 bps
    Stream size : 52.6 KiB (0%)
    Title : English full
    Language : English
    Encoded date : UTC 2015-11-21 11:13:08
    Tagged date : UTC 2015-11-21 11:13:08
    Menu #1
    00:00:00.000 : Глава 1
    00:02:27.000 : Глава 2
    00:11:29.000 : Глава 3
    00:19:03.000 : Глава 4
    00:29:03.000 : Глава 5
    00:38:43.000 : Глава 6
    00:48:18.000 : Глава 7
    00:57:31.000 : Глава 8
    01:06:05.000 : Глава 9
    01:15:52.000 : Глава 10
    01:24:46.000 : Глава 11
    Menu #2
    ID : 7
    Codec ID : text
    Duration : 1h 32mn
    Language : English
    Encoded date : UTC 2015-11-21 11:13:17
    Tagged date : UTC 2015-11-21 11:13:17
    00:00:00.000 : Глава 1
    00:02:27.000 : Глава 2
    00:11:29.000 : Глава 3
    00:19:03.000 : Глава 4
    00:29:03.000 : Глава 5
    00:38:43.000 : Глава 6
    00:48:18.000 : Глава 7
    00:57:31.000 : Глава 8
    01:06:05.000 : Глава 9
    01:15:52.000 : Глава 10
    01:24:46.000 : Глава 11
    Bit rate mode : VBR

    Скриншоты

    -

    Релиз подготовлен для просмотра на Apple TV, iPad, iPhone, iPod Touch.
    Для просмотра данного релиза на компьютере с ОС Windows рекомендуется использовать VLC media player
    Скачать .torrent

    Скачать торрент-файл бесплатно и на максимальной скорости!

    Как скачивать? · Что такое торрент? · Рейтинг и ограничения

    !ВНИМАНИЕ!
    Сайт не распространяет и не хранит электронные версии произведений, а занимается лишь лишь предоставлением доступа к создаваемому пользователями каталогу ссылок на торрент-файлы, которые содержат только списки хеш-сумм, убедительная просьба с жалобами обращаться напрямую к пользователю. Файлы для обмена на трекере предоставлены пользователями сайта, и администрация не несёт ответственности за их содержание. Просьба не заливать файлы, защищенные авторскими правами, а также файлы нелегального содержания!


    _________________
    [Профиль] [ЛС]
    Показать сообщения:    
    Ответить на тему

    Текущее время: Сегодня, в 01:48

    Часовой пояс: GMT + 2



    Вы не можете начинать темы
    Вы не можете отвечать на сообщения
    Вы не можете редактировать свои сообщения
    Вы не можете удалять свои сообщения
    Вы не можете голосовать в опросах
    Вы не можете прикреплять файлы к сообщениям
    Вы не можете скачивать файлы