BitTorrentTracker PerecTracker.org
BitTorrentTracker PerecTracker.org
    
Регистрация  ·  Вход
 
 · 
Забыли пароль?

  • Дама в очках и с ружьем в автомобиле / La dame dans l\'auto avec des lunettes et un fusil (Жоанн Сфар / Joann Sfar ) [2015, Франция, Бельгия, Триллер, WEB-DL, HD (720p)] DUB

    Ответить на тему
     
    Автор Сообщение

    Flirldrerve

    Создавать темы 23-Дек-2015 12:15

           

    [Цитировать]

    Дама в очках и с ружьем в автомобиле / La dame dans l'auto avec des lunettes et un fusil
    -
    5.50 / 10
    -Год выпуска: 2015
    Страна: Франция, Бельгия
    Жанр: Триллер
    Продолжительность: 01:34:48
    Перевод: Дублированный (iTunes)
    Оригинальная аудиодорожка: Нет
    Cубтитры: Нет
    Режиссёр: Жоанн Сфар
    Сценарий: Патрик Годо, Жиль Маршан, Себастьян Жапризо
    Продюсер: Патрик Годо, Карен Монлук, Жак-Анри Бронкар
    Оператор: Мануэль Дакоссе
    Композитор: Агнес Ольер
    Художник: Тьерри Ван Каппеллен
    Монтаж: Марилин Монтье, Кристоф Пинель
    В ролях: Фрейя Мавор, Бенжамин Биолэй, Элио Джермано, Стэйси Мартин, Тьерри Анкиссе, Сандрин Ларош, Фредерик Этерлинк, Ален Белло, Эдуар Жиар, Франсуа-Доминик Блен
    Сборы в России: $32 630
    Мировая премьера: 5 августа 2015
    Премьера (РФ): 22 октября 2015, «Русский Репортаж»
    Описание: Она самая прекрасная, самая чувственная, самая импульсивная, самая упрямая, самая незадачливая девушка. Она хотела воплотить мечту и увидеть море, а в результате попала в невероятную переделку. В чужом автомобиле и с трупом в багажнике, скрываясь от полиции и рискуя собственной жизнью, ей осталось только одно — убедить себя в том, что она еще не окончательно сошла с ума, и что она — это она, а не кто-то другой…-Качество исходника: WEB-DL 720p (NNMClub)
    Качество: WEB-DL
    Тип: HD (720p)
    Контейнер: M4V
    Видео: H.264, 1280x536, 2.40:1, 4 034 Kbps, 24.000 fps
    Аудио 1: Русский/Дублированный (iTunes), AAC / 2.0 / 157 Kbps / 48.0 KHz
    Аудио 2: Русский/Дублированный (iTunes), AC-3 / 5.1 / 384 Kbps / 48.0 KHz
    -

    iTunes Meta Tags

    Sort Name: Дама в очках и с ружьем в автомобиле
    XID: Apple:vendor_id:2015-861356
    contentID: 1053708823
    Copyright: © 2015 Русский Репортаж
    Screenwriters: Патрик Годо, Жиль Маршан, Себастьян Жапризо
    Producers: Патрик Годо, Карен Монлук, Жак-Анри Бронкар
    Director: Жоанн Сфар
    Cast: Фрейя Мавор, Бенжамин Биолэй, Элио Джермано, Стэйси Мартин, Тьерри Анкиссе, Сандрин Ларош, Фредерик Этерлинк, Ален Белло, Эдуар Жиар, Франсуа-Доминик Блен, Маргарита Сахно, Вадим Прохоров, Анна Слынько, Артем Веселов, Сергей Дьячков
    Studio: BE ЕМБ BNP Paribas Fortis Film Finance, Canal+[fr]
    Rating: 135
    Long Description: Она самая прекрасная, самая чувственная, самая импульсивная, самая упрямая, самая незадачливая девушка. Она хотела воплотить мечту и увидеть море, а в результате попала в невероятную переделку. В чужом автомобиле и с трупом в багажнике, скрываясь от полиции и рискуя собственной жизнью, ей осталось только одно - убедить себя в том, что она еще не окончательно сошла с ума, и что она - это она, а не кто-то другой...
    Description: Она самая прекрасная, самая чувственная, самая импульсивная, самая упрямая, самая незадачливая девушка. Она хотела воплотить мечту и увидеть море, а в результате попала в невероятную переделку. В чужом автомобиле и с трупом в багажнике, скрываясь от полиции и рискуя собственной жизнью, ей осталось только одно - убедить себя в том, что она еще не окончательно сошла с ума, и что она - это она, а не кто-то другой...
    Release Date: 2015-08-05T08:00:00Z
    Genre: Триллеры
    Artist: Жоанн Сфар
    Name: Дама в очках и с ружьем в автомобиле

    MediaInfo

    General
    Complete name : /Users/imac/HandBrake/Devushka.v.ochkah.WEB-DL.720p.m4v
    Format : MPEG-4
    Codec ID : M4V
    File size : 3.03 GiB
    Duration : 1h 34mn
    Overall bit rate mode : Variable
    Overall bit rate : 4 581 Kbps
    Movie name : Дама в очках и с ружьем в автомобиле
    Performer : Жоанн Сфар
    Director : Жоанн Сфар
    Actor : Фрейя Мавор / Бенжамин Биолэй / Элио Джермано / Стэйси Мартин / Тьерри Анкиссе / Сандрин Ларош / Фредерик Этерлинк / Ален Белло / Эдуар Жиар / Франсуа-Доминик Блен / Маргарита Сахно / Вадим Прохоров / Анна Слынько / Артем Веселов / Сергей Дьячков
    Screenplay by : Патрик Годо / Жиль Маршан / Себастьян Жапризо
    Producer : Патрик Годо / Карен Монлук / Жак-Анри Бронкар
    Production studio : BE ЕМБ BNP Paribas Fortis Film Finance, Canal+[fr]
    Genre : Триллеры
    ContentType : Short Film
    Description : Она самая прекрасная, самая чувственная, самая импульсивная, самая упрямая, самая незадачливая девушка. Она хотела воплотить мечту и увидеть море, а в результате попала в невероятную переделку. В чужом автомобиле и с трупом в багажнике, скрываясь от полиции и рискуя собственной жизнью, ей осталось только одно - убедить себя в том, что она еще не окончательно сошла с ума, и что она - это она, а не кто-то другой...
    Recorded date : UTC 2015-08-05 08:00:00
    Encoded date : UTC 2015-11-22 09:33:29
    Tagged date : UTC 2015-11-22 09:36:09
    Copyright : © 2015 Русский Репортаж
    Cover : Yes
    Rating : None
    Title/Sort : Дама в очках и с ружьем в автомобиле
    LongDescription : Она самая прекрасная, самая чувственная, самая импульсивная, самая упрямая, самая незадачливая девушка. Она хотела воплотить мечту и увидеть море, а в результате попала в невероятную переделку. В чужом автомобиле и с трупом в багажнике, скрываясь от полиции и рискуя собственной жизнью, ей осталось только одно - убедить себя в том, что она еще не окончательно сошла с ума, и что она - это она, а не кто-то другой...
    HDVideo : Yes
    AppleStoreCatalogID : 1053708823
    Vendor : Apple:vendor_id:2015-861356
    ContentRating : ru-movie|16+|375|
    Video #1
    ID : 1
    Format : AVC
    Format/Info : Advanced Video Codec
    Format profile : Main@L3.1
    Format settings, CABAC : No
    Format settings, ReFrames : 2 frames
    Format settings, GOP : M=2, N=90
    Codec ID : avc1
    Codec ID/Info : Advanced Video Coding
    Duration : 1h 34mn
    Bit rate : 4 034 Kbps
    Width : 1 280 pixels
    Height : 536 pixels
    Display aspect ratio : 2.40:1
    Frame rate mode : Variable
    Frame rate : 24.000 fps
    Minimum frame rate : 23.810 fps
    Maximum frame rate : 24.390 fps
    Color space : YUV
    Chroma subsampling : 4:2:0
    Bit depth : 8 bits
    Scan type : Progressive
    Bits/(Pixel*Frame) : 0.245
    Stream size : 2.67 GiB (88%)
    Title : Main Program
    Language : French
    Encoded date : UTC 2015-11-22 09:33:29
    Tagged date : UTC 2015-11-22 09:34:13
    Color range : Limited
    Color primaries : BT.709
    Transfer characteristics : BT.709
    Matrix coefficients : BT.709
    Video #2
    ID : 5
    Format : JPEG
    Codec ID : jpeg
    Duration : 1h 34mn
    Bit rate mode : Variable
    Bit rate : 426 bps
    Width : 640 pixels
    Height : 268 pixels
    Display aspect ratio : 2.40:1
    Frame rate mode : Variable
    Frame rate : 0.002 fps
    Minimum frame rate : 0.002 fps
    Maximum frame rate : 0.006 fps
    Color space : YUV
    Chroma subsampling : 4:2:0
    Bit depth : 8 bits
    Compression mode : Lossy
    Bits/(Pixel*Frame) : 1.242
    Stream size : 286 KiB (0%)
    Title : Chapter Images
    Language : French
    Encoded date : UTC 2015-11-22 09:34:15
    Tagged date : UTC 2015-11-22 09:34:15
    Audio #1
    ID : 2
    Format : AAC
    Format/Info : Advanced Audio Codec
    Format profile : LC
    Codec ID : 40
    Duration : 1h 34mn
    Bit rate mode : Variable
    Bit rate : 157 Kbps
    Maximum bit rate : 224 Kbps
    Channel(s) : 2 channels
    Channel positions : Front: L R
    Sampling rate : 48.0 KHz
    Compression mode : Lossy
    Stream size : 107 MiB (3%)
    Title : Russian Stereo
    Language : Russian
    Encoded date : UTC 2015-11-22 09:33:29
    Tagged date : UTC 2015-11-22 09:33:59
    Audio #2
    ID : 3
    Format : AC-3
    Format/Info : Audio Coding 3
    Mode extension : CM (complete main)
    Format settings, Endianness : Big
    Codec ID : ac-3
    Duration : 1h 34mn
    Bit rate mode : Constant
    Bit rate : 384 Kbps
    Channel(s) : 6 channels
    Channel positions : Front: L C R, Side: L R, LFE
    Sampling rate : 48.0 KHz
    Bit depth : 16 bits
    Compression mode : Lossy
    Stream size : 260 MiB (8%)
    Title : Russian DD 5.1
    Language : Russian
    Encoded date : UTC 2015-11-22 09:33:29
    Tagged date : UTC 2015-11-22 09:33:59
    Menu #1
    00:00:00.000 : Глава 1
    00:02:50.000 : Глава 2
    00:12:32.000 : Глава 3
    00:22:06.000 : Глава 4
    00:31:21.000 : Глава 5
    00:38:51.000 : Глава 6
    00:48:15.000 : Глава 7
    00:57:22.000 : Глава 8
    01:07:04.000 : Глава 9
    01:16:31.000 : Глава 10
    01:24:36.000 : Глава 11
    Menu #2
    ID : 4
    Codec ID : text
    Duration : 1h 34mn
    Language : French
    Encoded date : UTC 2015-11-22 09:34:13
    Tagged date : UTC 2015-11-22 09:34:13
    00:00:00.000 : Глава 1
    00:02:50.000 : Глава 2
    00:12:32.000 : Глава 3
    00:22:06.000 : Глава 4
    00:31:21.000 : Глава 5
    00:38:51.000 : Глава 6
    00:48:15.000 : Глава 7
    00:57:22.000 : Глава 8
    01:07:04.000 : Глава 9
    01:16:31.000 : Глава 10
    01:24:36.000 : Глава 11
    Bit rate mode : VBR

    Скриншоты

    -

    Релиз подготовлен для просмотра на Apple TV, iPad, iPhone, iPod Touch.
    Для просмотра данного релиза на компьютере с ОС Windows рекомендуется использовать VLC media player
    Скачать .torrent

    Скачать торрент-файл бесплатно и на максимальной скорости!

    Как скачивать? · Что такое торрент? · Рейтинг и ограничения

    !ВНИМАНИЕ!
    Сайт не распространяет и не хранит электронные версии произведений, а занимается лишь лишь предоставлением доступа к создаваемому пользователями каталогу ссылок на торрент-файлы, которые содержат только списки хеш-сумм, убедительная просьба с жалобами обращаться напрямую к пользователю. Файлы для обмена на трекере предоставлены пользователями сайта, и администрация не несёт ответственности за их содержание. Просьба не заливать файлы, защищенные авторскими правами, а также файлы нелегального содержания!


    _________________
    [Профиль] [ЛС]
    Показать сообщения:    
    Ответить на тему

    Текущее время: Сегодня, в 10:53

    Часовой пояс: GMT + 2



    Вы не можете начинать темы
    Вы не можете отвечать на сообщения
    Вы не можете редактировать свои сообщения
    Вы не можете удалять свои сообщения
    Вы не можете голосовать в опросах
    Вы не можете прикреплять файлы к сообщениям
    Вы не можете скачивать файлы