BitTorrentTracker PerecTracker.org
BitTorrentTracker PerecTracker.org
    
Регистрация  ·  Вход
 
 · 
Забыли пароль?

  • [ATV3] Хитмэн: Агент 47 / Hitman: Agent 47 (Александр Бах / Aleksander Bach ) [2015, США, Германия, Индонезия , Боевик, фантастика, триллер, BDRip, HD (1080p)] DUB + Original + sub (rus, eng, ukr)

    Ответить на тему
     
    Автор Сообщение

    Flirldrerve

    Создавать темы 23-Дек-2015 12:15

           

    [Цитировать]

    Хитмэн: Агент 47 / Hitman: Agent 47
    -
    5.974 / 10 5.80 / 10
    -Год выпуска: 2015
    Страна: США, Германия, Индонезия
    Жанр: Боевик, фантастика, триллер
    Продолжительность: 01:36:12
    Перевод: Дублированный (Лицензия)
    Оригинальная аудиодорожка: Есть
    Cубтитры: Русские, Английские, Украинские
    Режиссёр: Александр Бах
    Сценарий: Скип Вудс, Майкл Финч
    Продюсер: Адриан Аскариа, Чарльз Гордон, Алекс Янг
    Оператор: Оттар Гуднасон
    Композитор: Марко Белтрами
    Художник: Себастьян Т. Кравинкель, Сабина Энгелберг, Брайс Тибби
    Монтаж: Николас Де То
    В ролях: Руперт Френд, Ханна Уэр, Закари Куинто, Киран Хайндс, Томас Кречман, Анджела Бейби, Дэн Баккедаль, Шарлин Бек, Михаэль Борнхюттер, Мелисса Бротон
    Бюджет: $35 000 000
    Сборы в США: $22 467 450
    Сборы в мире: + $59 880 206 = $82 347 656
    Сборы в России: $3 742 752
    Мировая премьера: 13 августа 2015
    Премьера (РФ): 3 сентября 2015, «Двадцатый Век Фокс СНГ»
    Описание: История об элитном убийце, созданном при помощи генной инженерии, который объединяется с женщиной, чтобы помочь ей найти отца и раскрыть тайну своего происхождения.-Качество исходника: Blu-Ray (HDClub)
    Качество: BDRip
    Тип: HD (1080p)
    Контейнер: M4V
    Видео: H.264, 1920x800, 2.40:1, 8 000 Kbps, 23.976 fps
    Аудио 1: Русский/Дублированный (Лицензия), AAC / 2.0 / 158 Kbps / 48.0 KHz
    Аудио 2: Английский/Оригинальная дорожка , AAC / 2.0 / 158 Kbps / 48.0 KHz
    Аудио 3: Украинский/Дублированный (Лицензия), AAC / 2.0 / 158 Kbps / 48.0 KHz
    Аудио 4: Русский/Дублированный (Лицензия), AC-3 / 5.1 / 640 Kbps / 48.0 KHz
    Аудио 5: Английский/Оригинальная дорожка , AC-3 / 5.1 / 640 Kbps / 48.0 KHz
    Аудио 6: Украинский/Дублированный (Лицензия), AC-3 / 5.1 / 448 Kbps / 48.0 KHz
    Субтитры 1: Русские полные
    Субтитры 2: Английские полные
    Субтитры 3: Украинские полные
    -

    iTunes Meta Tags

    Sort Name: Hitman: Agent 47
    XID: Apple:vendor_id:2015-737668
    contentID: 1024301796
    Copyright: © 2015 Twentieth Century Fox Film Corporation. All rights reserved.
    Screenwriters: Скип Вудс, Майкл Финч
    Producers: Адриан Аскариа, Чарльз Гордон, Алекс Янг
    Director: Александр Бах
    Cast: Руперт Френд, Ханна Уэр, Закари Куинто, Киран Хайндс, Томас Кречман, Анджела Бейби, Дэн Баккедаль, Шарлин Бек, Михаэль Борнхюттер, Мелисса Бротон, Олег Фёдоров, Мария Цветкова-Овсянникова, Дмитрий Стрелков, Владимир Артемов, Станислав Концевич
    Studio: 20th Century Fox
    Rating: 5
    Long Description: История об элитном убийце, созданном при помощи генной инженерии, который объединяется с женщиной, чтобы помочь ей найти отца и раскрыть тайну своего происхождения.
    Description: История об элитном убийце, созданном при помощи генной инженерии, который объединяется с женщиной, чтобы помочь ей найти отца и раскрыть тайну своего происхождения.
    Release Date: 2015-08-19T08:00:00Z
    Genre: Action & Adventure
    Artist: Aleksander Bach
    Name: Hitman: Agent 47

    MediaInfo

    General
    Complete name : /Users/imac/HandBrake/Hitman- Agent 47 (1080p HD).m4v
    Format : MPEG-4
    Codec ID : M4V
    File size : 6.87 GiB
    Duration : 1h 36mn
    Overall bit rate mode : Variable
    Overall bit rate : 10.2 Mbps
    Movie name : Hitman: Agent 47
    Performer : Aleksander Bach
    Director : Александр Бах
    Actor : Руперт Френд / Ханна Уэр / Закари Куинто / Киран Хайндс / Томас Кречман / Анджела Бейби / Дэн Баккедаль / Шарлин Бек / Михаэль Борнхюттер / Мелисса Бротон / Олег Фёдоров / Мария Цветкова-Овсянникова / Дмитрий Стрелков / Владимир Артемов / Станислав Концевич
    Screenplay by : Скип Вудс / Майкл Финч
    Producer : Адриан Аскариа / Чарльз Гордон / Алекс Янг
    Production studio : 20th Century Fox
    Genre : Action & Adventure
    ContentType : Short Film
    Description : История об элитном убийце, созданном при помощи генной инженерии, который объединяется с женщиной, чтобы помочь ей найти отца и раскрыть тайну своего происхождения.
    Recorded date : UTC 2015-08-19 08:00:00
    Encoded date : UTC 2015-11-22 21:23:38
    Tagged date : UTC 2015-11-22 21:26:02
    Copyright : © 2015 Twentieth Century Fox Film Corporation. All rights reserved.
    Cover : Yes
    Rating : None
    Title/Sort : Hitman: Agent 47
    LongDescription : История об элитном убийце, созданном при помощи генной инженерии, который объединяется с женщиной, чтобы помочь ей найти отца и раскрыть тайну своего происхождения.
    AppleStoreCatalogID : 1024301796
    Vendor : Apple:vendor_id:2015-737668
    ContentRating : mpaa|R|400|
    Video #1
    ID : 1
    Format : AVC
    Format/Info : Advanced Video Codec
    Format profile : High@L4
    Format settings, CABAC : Yes
    Format settings, ReFrames : 4 frames
    Codec ID : avc1
    Codec ID/Info : Advanced Video Coding
    Duration : 1h 36mn
    Source duration : 1h 36mn
    Bit rate : 8 000 Kbps
    Width : 1 920 pixels
    Height : 800 pixels
    Display aspect ratio : 2.40:1
    Frame rate mode : Variable
    Frame rate : 23.976 fps
    Minimum frame rate : 23.810 fps
    Maximum frame rate : 24.272 fps
    Color space : YUV
    Chroma subsampling : 4:2:0
    Bit depth : 8 bits
    Scan type : Progressive
    Bits/(Pixel*Frame) : 0.217
    Stream size : 5.38 GiB (78%)
    Source stream size : 5.38 GiB (78%)
    Title : Main Program
    Writing library : x264 core 142 r2479 dd79a61
    Encoding settings : cabac=1 / ref=4 / deblock=1:-2:-2 / analyse=0x3:0x133 / me=umh / subme=10 / psy=1 / psy_rd=1.00:0.15 / mixed_ref=1 / me_range=32 / chroma_me=1 / trellis=2 / 8x8dct=1 / cqm=0 / deadzone=21,11 / fast_pskip=0 / chroma_qp_offset=-3 / threads=36 / lookahead_threads=6 / sliced_threads=0 / nr=0 / decimate=0 / interlaced=0 / bluray_compat=0 / constrained_intra=0 / bframes=16 / b_pyramid=2 / b_adapt=2 / b_bias=0 / direct=3 / weightb=1 / open_gop=0 / weightp=2 / keyint=240 / keyint_min=24 / scenecut=40 / intra_refresh=0 / rc_lookahead=60 / rc=2pass / mbtree=1 / bitrate=8000 / ratetol=1.0 / qcomp=0.70 / qpmin=0 / qpmax=69 / qpstep=4 / cplxblur=20.0 / qblur=0.5 / vbv_maxrate=25000 / vbv_bufsize=25000 / nal_hrd=none / filler=0 / ip_ratio=1.40 / aq=1:1.00
    Language : English
    Encoded date : UTC 2015-11-22 21:23:38
    Tagged date : UTC 2015-11-22 21:23:58
    Color range : Limited
    Color primaries : BT.709
    Transfer characteristics : BT.709
    Matrix coefficients : BT.709
    Video #2
    ID : 12
    Format : JPEG
    Codec ID : jpeg
    Duration : 1h 36mn
    Bit rate mode : Variable
    Bit rate : 1 056 bps
    Width : 640 pixels
    Height : 266 pixels
    Display aspect ratio : 2.40:1
    Frame rate mode : Variable
    Frame rate : 0.004 fps
    Minimum frame rate : 0.002 fps
    Maximum frame rate : 0.009 fps
    Color space : YUV
    Chroma subsampling : 4:2:0
    Bit depth : 8 bits
    Compression mode : Lossy
    Bits/(Pixel*Frame) : 1.551
    Stream size : 773 KiB (0%)
    Title : Chapter Images
    Language : English
    Encoded date : UTC 2015-11-22 21:24:09
    Tagged date : UTC 2015-11-22 21:24:10
    Audio #1
    ID : 2
    Format : AAC
    Format/Info : Advanced Audio Codec
    Format profile : LC
    Codec ID : 40
    Duration : 1h 36mn
    Bit rate mode : Variable
    Bit rate : 158 Kbps
    Maximum bit rate : 231 Kbps
    Channel(s) : 2 channels
    Channel positions : Front: L R
    Sampling rate : 48.0 KHz
    Compression mode : Lossy
    Stream size : 109 MiB (2%)
    Title : Russian Stereo
    Language : Russian
    Encoded date : UTC 2015-11-22 21:23:38
    Tagged date : UTC 2015-11-22 21:23:59
    Audio #2
    ID : 3
    Format : AAC
    Format/Info : Advanced Audio Codec
    Format profile : LC
    Codec ID : 40
    Duration : 1h 36mn
    Bit rate mode : Variable
    Bit rate : 158 Kbps
    Maximum bit rate : 241 Kbps
    Channel(s) : 2 channels
    Channel positions : Front: L R
    Sampling rate : 48.0 KHz
    Compression mode : Lossy
    Stream size : 109 MiB (2%)
    Title : English Stereo
    Language : English
    Encoded date : UTC 2015-11-22 21:23:38
    Tagged date : UTC 2015-11-22 21:23:59
    Audio #3
    ID : 4
    Format : AAC
    Format/Info : Advanced Audio Codec
    Format profile : LC
    Codec ID : 40
    Duration : 1h 36mn
    Bit rate mode : Variable
    Bit rate : 158 Kbps
    Maximum bit rate : 233 Kbps
    Channel(s) : 2 channels
    Channel positions : Front: L R
    Sampling rate : 48.0 KHz
    Compression mode : Lossy
    Stream size : 109 MiB (2%)
    Title : Ukrainian Stereo
    Language : Ukrainian
    Encoded date : UTC 2015-11-22 21:23:38
    Tagged date : UTC 2015-11-22 21:23:59
    Audio #4
    ID : 5
    Format : AC-3
    Format/Info : Audio Coding 3
    Mode extension : CM (complete main)
    Format settings, Endianness : Big
    Codec ID : ac-3
    Duration : 1h 36mn
    Bit rate mode : Constant
    Bit rate : 640 Kbps
    Channel(s) : 6 channels
    Channel positions : Front: L C R, Side: L R, LFE
    Sampling rate : 48.0 KHz
    Bit depth : 16 bits
    Compression mode : Lossy
    Stream size : 441 MiB (6%)
    Title : Russian DD 5.1
    Language : Russian
    Encoded date : UTC 2015-11-22 21:23:38
    Tagged date : UTC 2015-11-22 21:23:44
    Audio #5
    ID : 6
    Format : AC-3
    Format/Info : Audio Coding 3
    Mode extension : CM (complete main)
    Format settings, Endianness : Big
    Codec ID : ac-3
    Duration : 1h 36mn
    Bit rate mode : Constant
    Bit rate : 640 Kbps
    Channel(s) : 6 channels
    Channel positions : Front: L C R, Side: L R, LFE
    Sampling rate : 48.0 KHz
    Bit depth : 16 bits
    Compression mode : Lossy
    Stream size : 441 MiB (6%)
    Title : English DD 5.1
    Language : English
    Encoded date : UTC 2015-11-22 21:23:38
    Tagged date : UTC 2015-11-22 21:23:44
    Audio #6
    ID : 7
    Format : AC-3
    Format/Info : Audio Coding 3
    Mode extension : CM (complete main)
    Format settings, Endianness : Big
    Codec ID : ac-3
    Duration : 1h 36mn
    Bit rate mode : Constant
    Bit rate : 448 Kbps
    Channel(s) : 6 channels
    Channel positions : Front: L C R, Side: L R, LFE
    Sampling rate : 48.0 KHz
    Bit depth : 16 bits
    Compression mode : Lossy
    Stream size : 309 MiB (4%)
    Title : Ukrainian DD 5.1
    Language : Ukrainian
    Encoded date : UTC 2015-11-22 21:23:38
    Tagged date : UTC 2015-11-22 21:23:44
    Text #1
    ID : 8
    Format : Timed Text
    Muxing mode : sbtl
    Codec ID : tx3g
    Duration : 1h 36mn
    Bit rate mode : Variable
    Bit rate : 65 bps
    Stream size : 45.6 KiB (0%)
    Title : Russian full
    Language : Russian
    Encoded date : UTC 2015-11-22 21:23:38
    Tagged date : UTC 2015-11-22 21:23:38
    Text #2
    ID : 9
    Format : Timed Text
    Muxing mode : sbtl
    Codec ID : tx3g
    Duration : 1h 34mn
    Bit rate mode : Variable
    Bit rate : 46 bps
    Stream size : 32.2 KiB (0%)
    Title : English full
    Language : English
    Encoded date : UTC 2015-11-22 21:23:38
    Tagged date : UTC 2015-11-22 21:23:38
    Text #3
    ID : 10
    Format : Timed Text
    Muxing mode : sbtl
    Codec ID : tx3g
    Duration : 1h 36mn
    Bit rate mode : Variable
    Bit rate : 65 bps
    Stream size : 46.0 KiB (0%)
    Title : Ukrainian full
    Language : Ukrainian
    Encoded date : UTC 2015-11-22 21:23:38
    Tagged date : UTC 2015-11-22 21:23:38
    Menu #1
    00:00:00.000 : Chapter 1
    00:07:11.431 : Chapter 2
    00:09:03.042 : Chapter 3
    00:13:11.666 : Chapter 4
    00:16:21.689 : Chapter 5
    00:19:22.870 : Chapter 6
    00:24:43.899 : Chapter 7
    00:27:19.263 : Chapter 8
    00:30:18.775 : Chapter 9
    00:33:03.899 : Chapter 10
    00:38:18.796 : Chapter 11
    00:43:11.839 : Chapter 12
    00:46:53.519 : Chapter 13
    00:50:39.954 : Chapter 14
    00:54:02.614 : Chapter 15
    00:59:50.670 : Chapter 16
    01:06:01.833 : Chapter 17
    01:09:06.225 : Chapter 18
    01:13:23.274 : Chapter 19
    01:16:55.402 : Chapter 20
    01:21:15.829 : Chapter 21
    01:25:20.907 : Chapter 22
    01:28:06.239 : Chapter 23
    01:31:17.931 : Chapter 24
    Menu #2
    ID : 11
    Codec ID : text
    Duration : 1h 36mn
    Language : English
    Encoded date : UTC 2015-11-22 21:23:59
    Tagged date : UTC 2015-11-22 21:23:59
    00:00:00.000 : Chapter 1
    00:07:11.431 : Chapter 2
    00:09:03.042 : Chapter 3
    00:13:11.666 : Chapter 4
    00:16:21.689 : Chapter 5
    00:19:22.870 : Chapter 6
    00:24:43.899 : Chapter 7
    00:27:19.263 : Chapter 8
    00:30:18.775 : Chapter 9
    00:33:03.899 : Chapter 10
    00:38:18.796 : Chapter 11
    00:43:11.839 : Chapter 12
    00:46:53.519 : Chapter 13
    00:50:39.954 : Chapter 14
    00:54:02.614 : Chapter 15
    00:59:50.670 : Chapter 16
    01:06:01.833 : Chapter 17
    01:09:06.225 : Chapter 18
    01:13:23.274 : Chapter 19
    01:16:55.402 : Chapter 20
    01:21:15.829 : Chapter 21
    01:25:20.907 : Chapter 22
    01:28:06.239 : Chapter 23
    01:31:17.931 : Chapter 24
    Bit rate mode : VBR

    x264 лог

    x264 [info]: frame I:935   Avg QP:16.44  size:196901
    x264 [info]: frame P:39484 Avg QP:19.41  size: 63008
    x264 [info]: frame B:98086 Avg QP:19.88  size: 31627
    x264 [info]: consecutive B-frames:  7.2%  9.3% 13.2% 12.6% 13.6% 37.3%  4.1%  0.6%  0.7%  0.5%  0.3%  0.1%  0.1%  0.1%  0.0%  0.0%  0.1%
    x264 [info]: mb I  I16..4: 11.6% 77.4% 11.0%
    x264 [info]: mb P  I16..4:  3.8% 18.3%  1.4%  P16..4: 44.4% 14.4% 10.2%  0.2%  0.1%    skip: 7.1%
    x264 [info]: mb B  I16..4:  0.2%  2.0%  0.1%  B16..8: 45.3%  9.7%  2.2%  direct: 8.4%  skip:32.2%  L0:44.1% L1:46.6% BI: 9.3%
    x264 [info]: 8x8 transform intra:79.6% inter:68.7%
    x264 [info]: direct mvs  spatial:96.4% temporal:3.6%
    x264 [info]: coded y,uvDC,uvAC intra: 83.5% 83.6% 61.6% inter: 31.5% 40.2% 19.6%
    x264 [info]: i16 v,h,dc,p: 24% 15%  9% 53%
    x264 [info]: i8 v,h,dc,ddl,ddr,vr,hd,vl,hu:  8%  8%  8% 11% 14% 13% 14% 12% 13%
    x264 [info]: i4 v,h,dc,ddl,ddr,vr,hd,vl,hu:  9% 12%  4% 10% 15% 14% 14% 10% 12%
    x264 [info]: i8c dc,h,v,p: 45% 21% 17% 17%
    x264 [info]: Weighted P-Frames: Y:3.3% UV:2.1%
    x264 [info]: ref P L0: 53.1%  9.5% 24.7% 10.2%  2.5%  0.1%
    x264 [info]: ref B L0: 82.1% 14.9%  3.0%
    x264 [info]: ref B L1: 90.1%  9.9%
    x264 [info]: kb/s:7996.18

    Скриншоты

    -

    Релиз подготовлен для просмотра на Apple TV, iPad, iPhone, iPod Touch.
    Для просмотра данного релиза на компьютере с ОС Windows рекомендуется использовать VLC media player
    Скачать .torrent

    Скачать торрент-файл бесплатно и на максимальной скорости!

    Как скачивать? · Что такое торрент? · Рейтинг и ограничения

    !ВНИМАНИЕ!
    Сайт не распространяет и не хранит электронные версии произведений, а занимается лишь лишь предоставлением доступа к создаваемому пользователями каталогу ссылок на торрент-файлы, которые содержат только списки хеш-сумм, убедительная просьба с жалобами обращаться напрямую к пользователю. Файлы для обмена на трекере предоставлены пользователями сайта, и администрация не несёт ответственности за их содержание. Просьба не заливать файлы, защищенные авторскими правами, а также файлы нелегального содержания!


    _________________
    [Профиль] [ЛС]
    Показать сообщения:    
    Ответить на тему

    Текущее время: Сегодня, в 14:20

    Часовой пояс: GMT + 2



    Вы не можете начинать темы
    Вы не можете отвечать на сообщения
    Вы не можете редактировать свои сообщения
    Вы не можете удалять свои сообщения
    Вы не можете голосовать в опросах
    Вы не можете прикреплять файлы к сообщениям
    Вы не можете скачивать файлы