BitTorrentTracker PerecTracker.org
BitTorrentTracker PerecTracker.org
    
Регистрация  ·  Вход
 
 · 
Забыли пароль?

  • [ATV3] Война полов (Кирилл Кузин) [2015, Россия, Комедия, WEB-DL, HD (1080p)] Original

    Ответить на тему
     
    Автор Сообщение

    Flirldrerve

    Создавать темы 23-Дек-2015 12:15

           

    [Цитировать]

    Война полов
    «Мужики! Не расслабляйтесь!»
    3.814 / 10
    -Год выпуска: 2015
    Страна: Россия
    Жанр: Комедия
    Продолжительность: 01:26:14
    Перевод: Не требуется
    Оригинальная аудиодорожка: Есть
    Cубтитры: Нет
    Режиссёр: Кирилл Кузин
    Сценарий: Андрей Курейчик
    Продюсер: Рубен Атоян, Всеволод Зорин, Оксана Бровченко
    Оператор: Евгений Ермоленко
    Композитор: Дмитрий Носков
    Художник: Павел Лычкин
    В ролях: Харальд Розенстрём, Александр Пальчиков, Екатерина Кузнецова, Сабина Ахмедова, Алексей Демидов, Марина Федункив, Анатолий Белый, Kristelle, Борис Эстрин, Артем Семакин
    Бюджет: $2 000 000
    Сборы в России: $189 394
    Мировая премьера:
    Премьера (РФ): 22 октября 2015, «Каро-Премьер»
    Описание: Что завтра на рассвете с каждым из нас случится, не знает никто. И когда ТРИ наших героя проснулись на необитаемом острове, в компании ДВУХ красивых… но не очень дружелюбных девушек… да еще без воды и еды… Вот тут они и поняли, что жизнь действительно полна сюрпризов!-Качество исходника: WEB-DL 1080p (NNMClub)
    Качество: WEB-DL
    Тип: HD (1080p)
    Контейнер: M4V
    Видео: H.264, 1920x806, 2.40:1, 4 541 Kbps, 25.000 fps
    Аудио 1: Русский/Оригинальная дорожка , AAC / 2.0 / 160 Kbps / 48.0 KHz
    Аудио 2: Русский/Оригинальная дорожка , AC-3 / 5.1 / 384 Kbps / 48.0 KHz
    -

    iTunes Meta Tags

    Sort Name: Война полов
    XID: Apple:vendor_id:2015-840230
    contentID: 1055158365
    Copyright: © 2015 Каро-Премьер
    Screenwriters: Андрей Курейчик
    Producers: Рубен Атоян, Всеволод Зорин, Оксана Бровченко
    Director: Кирилл Кузин
    Cast: Харальд Розенстрём, Александр Пальчиков, Екатерина Кузнецова, Сабина Ахмедова, Алексей Демидов, Марина Федункив, Анатолий Белый, Kristelle, Борис Эстрин, Артем Семакин, Александр Хошабаев
    Studio: РИМ
    Rating: 135
    Long Description: Что завтра на рассвете с каждым из нас случится, не знает никто. И когда ТРИ наших героя проснулись на необитаемом острове, в компании ДВУХ красивых... но не очень дружелюбных девушек... да еще без воды и еды... Вот тут они и поняли, что жизнь действительно полна сюрпризов!
    Description: Что завтра на рассвете с каждым из нас случится, не знает никто. И когда ТРИ наших героя проснулись на необитаемом острове, в компании ДВУХ красивых... но не очень дружелюбных девушек... да еще без воды и еды... Вот тут они и поняли, что жизнь действительно полна сюрпризов!
    Release Date: 2015-01-01T08:00:00Z
    Genre: Русское кино
    Artist: Кирилл Кузин
    Name: Война полов

    MediaInfo

    General
    Complete name : /Users/imac/HandBrake/Voyna.Polov.WEB-DL.1080p.m4v
    Format : MPEG-4
    Codec ID : M4V
    File size : 3.07 GiB
    Duration : 1h 26mn
    Overall bit rate mode : Variable
    Overall bit rate : 5 091 Kbps
    Movie name : Война полов
    Performer : Кирилл Кузин
    Director : Кирилл Кузин
    Actor : Харальд Розенстрём / Александр Пальчиков / Екатерина Кузнецова / Сабина Ахмедова / Алексей Демидов / Марина Федункив / Анатолий Белый / Kristelle / Борис Эстрин / Артем Семакин / Александр Хошабаев
    Screenplay by : Андрей Курейчик
    Producer : Рубен Атоян / Всеволод Зорин / Оксана Бровченко
    Production studio : РИМ
    Genre : Русское кино
    ContentType : Short Film
    Description : Что завтра на рассвете с каждым из нас случится, не знает никто. И когда ТРИ наших героя проснулись на необитаемом острове, в компании ДВУХ красивых... но не очень дружелюбных девушек... да еще без воды и еды... Вот тут они и поняли, что жизнь действительно полна сюрпризов!
    Recorded date : UTC 2015-01-01 08:00:00
    Encoded date : UTC 2015-11-23 20:51:48
    Tagged date : UTC 2015-11-23 20:53:25
    Copyright : © 2015 Каро-Премьер
    Cover : Yes
    Rating : None
    Title/Sort : Война полов
    LongDescription : Что завтра на рассвете с каждым из нас случится, не знает никто. И когда ТРИ наших героя проснулись на необитаемом острове, в компании ДВУХ красивых... но не очень дружелюбных девушек... да еще без воды и еды... Вот тут они и поняли, что жизнь действительно полна сюрпризов!
    AppleStoreCatalogID : 1055158365
    Vendor : Apple:vendor_id:2015-840230
    ContentRating : ru-movie|16+|375|
    Video #1
    ID : 1
    Format : AVC
    Format/Info : Advanced Video Codec
    Format profile : High@L4
    Format settings, CABAC : Yes
    Format settings, ReFrames : 5 frames
    Codec ID : avc1
    Codec ID/Info : Advanced Video Coding
    Duration : 1h 26mn
    Bit rate : 4 541 Kbps
    Width : 1 920 pixels
    Height : 806 pixels
    Display aspect ratio : 2.40:1
    Frame rate mode : Constant
    Frame rate : 25.000 fps
    Color space : YUV
    Chroma subsampling : 4:2:0
    Bit depth : 8 bits
    Scan type : Progressive
    Bits/(Pixel*Frame) : 0.117
    Stream size : 2.74 GiB (89%)
    Title : Main Program
    Language : Russian
    Encoded date : UTC 2015-11-23 20:51:48
    Tagged date : UTC 2015-11-23 20:52:26
    Color range : Limited
    Color primaries : BT.709
    Transfer characteristics : BT.709
    Matrix coefficients : BT.709
    Video #2
    ID : 5
    Format : JPEG
    Codec ID : jpeg
    Duration : 1h 26mn
    Bit rate mode : Variable
    Bit rate : 1 080 bps
    Width : 640 pixels
    Height : 268 pixels
    Display aspect ratio : 2.40:1
    Frame rate mode : Variable
    Frame rate : 0.003 fps
    Minimum frame rate : 0.003 fps
    Maximum frame rate : 0.006 fps
    Color space : YUV
    Chroma subsampling : 4:2:0
    Bit depth : 8 bits
    Compression mode : Lossy
    Bits/(Pixel*Frame) : 2.099
    Stream size : 703 KiB (0%)
    Title : Chapter Images
    Language : Russian
    Encoded date : UTC 2015-11-23 20:52:31
    Tagged date : UTC 2015-11-23 20:52:31
    Audio #1
    ID : 2
    Format : AAC
    Format/Info : Advanced Audio Codec
    Format profile : LC
    Codec ID : 40
    Duration : 1h 26mn
    Bit rate mode : Variable
    Bit rate : 160 Kbps
    Maximum bit rate : 267 Kbps
    Channel(s) : 2 channels
    Channel positions : Front: L R
    Sampling rate : 48.0 KHz
    Compression mode : Lossy
    Stream size : 98.9 MiB (3%)
    Title : Russian Stereo
    Language : Russian
    Encoded date : UTC 2015-11-23 20:51:48
    Tagged date : UTC 2015-11-23 20:51:53
    Audio #2
    ID : 3
    Format : AC-3
    Format/Info : Audio Coding 3
    Mode extension : CM (complete main)
    Format settings, Endianness : Big
    Codec ID : ac-3
    Duration : 1h 26mn
    Bit rate mode : Constant
    Bit rate : 384 Kbps
    Channel(s) : 6 channels
    Channel positions : Front: L C R, Side: L R, LFE
    Sampling rate : 48.0 KHz
    Bit depth : 16 bits
    Compression mode : Lossy
    Stream size : 237 MiB (8%)
    Title : Russian DD 5.1
    Language : Russian
    Encoded date : UTC 2015-11-23 20:51:48
    Tagged date : UTC 2015-11-23 20:51:52
    Menu #1
    00:00:00.000 : Глава 1
    00:05:01.000 : Глава 2
    00:10:30.000 : Глава 3
    00:15:50.000 : Глава 4
    00:21:17.000 : Глава 5
    00:26:34.000 : Глава 6
    00:32:25.000 : Глава 7
    00:38:19.000 : Глава 8
    00:43:34.000 : Глава 9
    00:49:02.000 : Глава 10
    00:54:04.000 : Глава 11
    01:00:06.000 : Глава 12
    01:05:26.000 : Глава 13
    01:11:52.000 : Глава 14
    01:17:40.000 : Глава 15
    01:23:34.000 : Глава 16
    Menu #2
    ID : 4
    Codec ID : text
    Duration : 1h 26mn
    Language : Russian
    Encoded date : UTC 2015-11-23 20:52:26
    Tagged date : UTC 2015-11-23 20:52:26
    00:00:00.000 : Глава 1
    00:05:01.000 : Глава 2
    00:10:30.000 : Глава 3
    00:15:50.000 : Глава 4
    00:21:17.000 : Глава 5
    00:26:34.000 : Глава 6
    00:32:25.000 : Глава 7
    00:38:19.000 : Глава 8
    00:43:34.000 : Глава 9
    00:49:02.000 : Глава 10
    00:54:04.000 : Глава 11
    01:00:06.000 : Глава 12
    01:05:26.000 : Глава 13
    01:11:52.000 : Глава 14
    01:17:40.000 : Глава 15
    01:23:34.000 : Глава 16
    Bit rate mode : VBR

    Скриншоты

    -

    Релиз подготовлен для просмотра на Apple TV, iPad, iPhone, iPod Touch.
    Для просмотра данного релиза на компьютере с ОС Windows рекомендуется использовать VLC media player
    Скачать .torrent

    Скачать торрент-файл бесплатно и на максимальной скорости!

    Как скачивать? · Что такое торрент? · Рейтинг и ограничения

    !ВНИМАНИЕ!
    Сайт не распространяет и не хранит электронные версии произведений, а занимается лишь лишь предоставлением доступа к создаваемому пользователями каталогу ссылок на торрент-файлы, которые содержат только списки хеш-сумм, убедительная просьба с жалобами обращаться напрямую к пользователю. Файлы для обмена на трекере предоставлены пользователями сайта, и администрация не несёт ответственности за их содержание. Просьба не заливать файлы, защищенные авторскими правами, а также файлы нелегального содержания!


    _________________
    [Профиль] [ЛС]
    Показать сообщения:    
    Ответить на тему

    Текущее время: Сегодня, в 15:58

    Часовой пояс: GMT + 2



    Вы не можете начинать темы
    Вы не можете отвечать на сообщения
    Вы не можете редактировать свои сообщения
    Вы не можете удалять свои сообщения
    Вы не можете голосовать в опросах
    Вы не можете прикреплять файлы к сообщениям
    Вы не можете скачивать файлы