BitTorrentTracker PerecTracker.org
BitTorrentTracker PerecTracker.org
    
Регистрация  ·  Вход
 
 · 
Забыли пароль?

  • Пиксели / Pixels (Крис Коламбус / Chris Columbus ) [2015, США, Китай, Канада, Фантастика, боевик, комедия, BDRip, HD (720p)] DUB + Original + sub (rus, eng, ukr)

    Ответить на тему
     
    Автор Сообщение

    Flirldrerve

    Создавать темы 23-Дек-2015 12:15

           

    [Цитировать]

    Пиксели / Pixels
    «It's time to save the World»
    6.109 / 10 5.70 / 10
    -Год выпуска: 2015
    Страна: США, Китай, Канада
    Жанр: Фантастика, боевик, комедия
    Продолжительность: 01:45:49
    Перевод: Дублированный (Лицензия)
    Оригинальная аудиодорожка: Есть
    Cубтитры: Русские форсированные, Английские форсированные, Русские, Английские, Украинские
    Режиссёр: Крис Коламбус
    Сценарий: Тим Херлихи, Тимоти Даулинг, Патрик Жан
    Продюсер: Майкл Барнатан, Крис Коламбус, Аллен Коверт
    Оператор: Амир М. Мокри
    Композитор: Генри Джекман
    Художник: Питер Венхам, Рэмси Эйвери, Стив Кристенсен
    Монтаж: Пек Прайор, Хьюз Уинборн
    В ролях: Адам Сэндлер, Кевин Джеймс, Мишель Монахэн, Питер Динклэйдж, Джош Гад, Брайан Кокс, Мэттью Линтц, Шон Бин, Джейн Краковски, Дэн Эйкройд
    Бюджет: $88 000 000
    Сборы в США: $78 747 585
    Сборы в мире: + $164 889 506 = $243 637 091
    Сборы в России: $5 562 117
    Мировая премьера: 16 июля 2015
    Премьера (РФ): 23 июля 2015. «WDSSPR»
    Релиз на DVD: 22 октября 2015, «CP Дистрибуция»
    Релиз на Blu-Ray: 22 октября 2015, «CP Дистрибуция»
    Описание: Очередное вторжение инопланетян на Землю… Вы скажете: «Что может быть банальнее?!». Да, если бы на этот раз они не предстали в виде героев вселенски популярных компьютерных игр. Сражаться с пришельцами призвана команда бывших геймеров, в числе которых: Президент Соединенных Штатов Америки; карлик-зэк, большой ценитель прекрасного пола; зануда-параноик, свято верящий в теорию вселенского заговора; профессиональный неудачник и циник, в детстве подававший большие надежды. А помогает новоиспеченным героям очаровательная ученая фея.-Качество исходника: BDRemux (HDClub)
    Качество: BDRip
    Тип: HD (720p)
    Контейнер: M4V
    Видео: H.264, 1280x528, 2.40:1, 3 500 Kbps, 23.976 fps
    Аудио 1: Русский/Дублированный (Лицензия), AAC / 2.0 / 159 Kbps / 48.0 KHz
    Аудио 2: Английский/Оригинальная дорожка , AAC / 2.0 / 156 Kbps / 48.0 KHz
    Аудио 3: Украинский/Дублированный (Лицензия), AAC / 2.0 / 158 Kbps / 48.0 KHz
    Аудио 4: Русский/Дублированный (Лицензия), AC-3 / 5.1 / 640 Kbps / 48.0 KHz
    Аудио 5: Английский/Оригинальная дорожка , AC-3 / 5.1 / 640 Kbps / 48.0 KHz
    Аудио 6: Украинский/Дублированный (Лицензия), AC-3 / 5.1 / 640 Kbps / 48.0 KHz
    Субтитры 1: Русские форсированные
    Субтитры 2: Английские форсированные
    Субтитры 3: Русские полные
    Субтитры 4: Английские полные
    Субтитры 5: Украинские полные
    -

    iTunes Meta Tags

    Sort Name: Pixels
    XID: Apple:vendor_id:2015-651628
    contentID: 1015726603
    Copyright: © 2015 Columbia Pictures Industries, Inc., LSC Film Corporation and China Film Co., Ltd. All Rights Reserved. Pac-Man TM & © 2015 BANDAI NAMCO Entertainment Inc.
    Screenwriters: Тим Херлихи, Тимоти Даулинг, Патрик Жан
    Producers: Майкл Барнатан, Крис Коламбус, Аллен Коверт
    Director: Крис Коламбус
    Cast: Адам Сэндлер, Кевин Джеймс, Мишель Монахэн, Питер Динклэйдж, Джош Гад, Брайан Кокс, Мэттью Линтц, Шон Бин, Джейн Краковски, Дэн Эйкройд
    Studio: Happy Madison Productions
    Rating Annotation: Rated PG-13 for some language and suggestive comments.
    Rating: 4
    Long Description: Очередное вторжение инопланетян на Землю... Вы скажете: \"Что может быть банальнее?!\". Да, если бы на этот раз они не предстали в виде героев вселенски популярных компьютерных игр. Сражаться с пришельцами призвана команда бывших геймеров, в числе которых: Президент Соединенных Штатов Америки; карлик-зэк, большой ценитель прекрасного пола; зануда-параноик, свято верящий в теорию вселенского заговора; профессиональный неудачник и циник, в детстве подававший большие надежды. А помогает новоиспеченным героям очаровательная ученая фея.
    Description: Очередное вторжение инопланетян на Землю... Вы скажете: \"Что может быть банальнее?!\". Да, если бы на этот раз они не предстали в виде героев вселенски популярных компьютерных игр...
    Release Date: 2015-07-16T08:00:00Z
    Genre: Action & Adventure
    Artist: Chris Columbus
    Name: Pixels

    MediaInfo

    General
    Complete name : /Users/imac/HandBrake/Pixels (720p HD).m4v
    Format : MPEG-4
    Codec ID : M4V
    File size : 4.36 GiB
    Duration : 1h 45mn
    Overall bit rate mode : Variable
    Overall bit rate : 5 898 Kbps
    Movie name : Pixels
    Performer : Chris Columbus
    Director : Крис Коламбус
    Actor : Адам Сэндлер / Кевин Джеймс / Мишель Монахэн / Питер Динклэйдж / Джош Гад / Брайан Кокс / Мэттью Линтц / Шон Бин / Джейн Краковски / Дэн Эйкройд
    Screenplay by : Тим Херлихи / Тимоти Даулинг / Патрик Жан
    Producer : Майкл Барнатан / Крис Коламбус / Аллен Коверт
    Production studio : Happy Madison Productions
    Genre : Action & Adventure
    ContentType : Short Film
    Description : Очередное вторжение инопланетян на Землю... Вы скажете: \"Что может быть банальнее?!\". Да, если бы на этот раз они не предстали в виде героев вселенски популярных компьютерных игр...
    Recorded date : UTC 2015-07-16 08:00:00
    Encoded date : UTC 2015-12-04 23:01:13
    Tagged date : UTC 2015-12-04 23:06:36
    Copyright : © 2015 Columbia Pictures Industries, Inc., LSC Film Corporation and China Film Co., Ltd. All Rights Reserved. Pac-Man TM & © 2015 BANDAI NAMCO Entertainment Inc.
    Cover : Yes
    Rating : None
    Title/Sort : Pixels
    LongDescription : Очередное вторжение инопланетян на Землю... Вы скажете: \"Что может быть банальнее?!\". Да, если бы на этот раз они не предстали в виде героев вселенски популярных компьютерных игр. Сражаться с пришельцами призвана команда бывших геймеров, в числе которых: Президент Соединенных Штатов Америки; карлик-зэк, большой ценитель прекрасного пола; зануда-параноик, свято верящий в теорию вселенского заговора; профессиональный неудачник и циник, в детстве подававший большие надежды. А помогает новоиспеченным героям очаровательная ученая фея.
    HDVideo : Yes
    AppleStoreCatalogID : 1015726603
    Vendor : Apple:vendor_id:2015-651628
    ContentRating : mpaa|PG-13|300|Rated PG-13 for some language and suggestive comments.
    Video #1
    ID : 1
    Format : AVC
    Format/Info : Advanced Video Codec
    Format profile : High@L3.1
    Format settings, CABAC : No
    Format settings, ReFrames : 3 frames
    Codec ID : avc1
    Codec ID/Info : Advanced Video Coding
    Duration : 1h 45mn
    Source duration : 1h 45mn
    Bit rate : 3 500 Kbps
    Width : 1 280 pixels
    Height : 528 pixels
    Display aspect ratio : 2.40:1
    Frame rate mode : Variable
    Frame rate : 23.976 fps
    Minimum frame rate : 23.810 fps
    Maximum frame rate : 24.272 fps
    Color space : YUV
    Chroma subsampling : 4:2:0
    Bit depth : 8 bits
    Scan type : Progressive
    Bits/(Pixel*Frame) : 0.216
    Stream size : 2.58 GiB (59%)
    Source stream size : 2.58 GiB (59%)
    Title : Main Program
    Writing library : x264 core 142 r2479 dd79a61
    Encoding settings : cabac=0 / ref=3 / deblock=1:-3:-3 / analyse=0x3:0x113 / me=umh / subme=9 / psy=1 / psy_rd=1.00:0.15 / mixed_ref=1 / me_range=32 / chroma_me=1 / trellis=0 / 8x8dct=1 / cqm=0 / deadzone=21,11 / fast_pskip=0 / chroma_qp_offset=-2 / threads=36 / lookahead_threads=3 / sliced_threads=0 / nr=0 / decimate=0 / interlaced=0 / bluray_compat=0 / constrained_intra=0 / bframes=3 / b_pyramid=0 / b_adapt=2 / b_bias=0 / direct=1 / weightb=0 / open_gop=0 / weightp=0 / keyint=240 / keyint_min=24 / scenecut=40 / intra_refresh=0 / rc_lookahead=40 / rc=2pass / mbtree=1 / bitrate=3500 / ratetol=1.0 / qcomp=0.65 / qpmin=0 / qpmax=69 / qpstep=4 / cplxblur=20.0 / qblur=0.5 / vbv_maxrate=9500 / vbv_bufsize=9500 / nal_hrd=none / filler=0 / ip_ratio=1.40 / aq=1:1.10
    Language : English
    Encoded date : UTC 2015-12-04 23:01:13
    Tagged date : UTC 2015-12-04 23:01:23
    Color range : Limited
    Color primaries : BT.709
    Transfer characteristics : BT.709
    Matrix coefficients : BT.709
    Video #2
    ID : 14
    Format : JPEG
    Codec ID : jpeg
    Duration : 1h 45mn
    Bit rate mode : Variable
    Bit rate : 1 013 bps
    Width : 640 pixels
    Height : 264 pixels
    Display aspect ratio : 2.40:1
    Frame rate mode : Variable
    Frame rate : 0.003 fps
    Minimum frame rate : 0.001 fps
    Maximum frame rate : 0.004 fps
    Color space : YUV
    Chroma subsampling : 4:2:0
    Bit depth : 8 bits
    Compression mode : Lossy
    Bits/(Pixel*Frame) : 1.999
    Stream size : 659 KiB (0%)
    Title : Chapter Images
    Language : English
    Encoded date : UTC 2015-12-04 23:02:07
    Tagged date : UTC 2015-12-04 23:02:07
    Audio #1
    ID : 2
    Format : AAC
    Format/Info : Advanced Audio Codec
    Format profile : LC
    Codec ID : 40
    Duration : 1h 45mn
    Bit rate mode : Variable
    Bit rate : 159 Kbps
    Maximum bit rate : 288 Kbps
    Channel(s) : 2 channels
    Channel positions : Front: L R
    Sampling rate : 48.0 KHz
    Compression mode : Lossy
    Stream size : 120 MiB (3%)
    Title : Russian Stereo
    Language : Russian
    Encoded date : UTC 2015-12-04 23:01:13
    Tagged date : UTC 2015-12-04 23:01:26
    Audio #2
    ID : 3
    Format : AAC
    Format/Info : Advanced Audio Codec
    Format profile : LC
    Codec ID : 40
    Duration : 1h 45mn
    Bit rate mode : Variable
    Bit rate : 156 Kbps
    Maximum bit rate : 278 Kbps
    Channel(s) : 2 channels
    Channel positions : Front: L R
    Sampling rate : 48.0 KHz
    Compression mode : Lossy
    Stream size : 118 MiB (3%)
    Title : English Stereo
    Language : English
    Encoded date : UTC 2015-12-04 23:01:13
    Tagged date : UTC 2015-12-04 23:02:03
    Audio #3
    ID : 4
    Format : AAC
    Format/Info : Advanced Audio Codec
    Format profile : LC
    Codec ID : 40
    Duration : 1h 45mn
    Bit rate mode : Variable
    Bit rate : 158 Kbps
    Maximum bit rate : 287 Kbps
    Channel(s) : 2 channels
    Channel positions : Front: L R
    Sampling rate : 48.0 KHz
    Compression mode : Lossy
    Stream size : 120 MiB (3%)
    Title : Ukrainian Stereo
    Language : Ukrainian
    Encoded date : UTC 2015-12-04 23:01:13
    Tagged date : UTC 2015-12-04 23:01:27
    Audio #4
    ID : 5
    Format : AC-3
    Format/Info : Audio Coding 3
    Mode extension : CM (complete main)
    Format settings, Endianness : Big
    Codec ID : ac-3
    Duration : 1h 45mn
    Bit rate mode : Constant
    Bit rate : 640 Kbps
    Channel(s) : 6 channels
    Channel positions : Front: L C R, Side: L R, LFE
    Sampling rate : 48.0 KHz
    Bit depth : 16 bits
    Compression mode : Lossy
    Stream size : 484 MiB (11%)
    Title : Russian DD 5.1
    Language : Russian
    Encoded date : UTC 2015-12-04 23:01:13
    Tagged date : UTC 2015-12-04 23:01:19
    Audio #5
    ID : 6
    Format : AC-3
    Format/Info : Audio Coding 3
    Mode extension : CM (complete main)
    Format settings, Endianness : Big
    Codec ID : ac-3
    Duration : 1h 45mn
    Bit rate mode : Constant
    Bit rate : 640 Kbps
    Channel(s) : 6 channels
    Channel positions : Front: L C R, Side: L R, LFE
    Sampling rate : 48.0 KHz
    Bit depth : 16 bits
    Compression mode : Lossy
    Stream size : 484 MiB (11%)
    Title : English DD 5.1
    Language : English
    Encoded date : UTC 2015-12-04 23:01:13
    Tagged date : UTC 2015-12-04 23:02:03
    Audio #6
    ID : 7
    Format : AC-3
    Format/Info : Audio Coding 3
    Mode extension : CM (complete main)
    Format settings, Endianness : Big
    Codec ID : ac-3
    Duration : 1h 45mn
    Bit rate mode : Constant
    Bit rate : 640 Kbps
    Channel(s) : 6 channels
    Channel positions : Front: L C R, Side: L R, LFE
    Sampling rate : 48.0 KHz
    Bit depth : 16 bits
    Compression mode : Lossy
    Stream size : 484 MiB (11%)
    Title : Ukrainian DD 5.1
    Language : Ukrainian
    Encoded date : UTC 2015-12-04 23:01:13
    Tagged date : UTC 2015-12-04 23:01:19
    Text #1
    ID : 8
    Format : Timed Text
    Muxing mode : sbtl
    Codec ID : tx3g
    Duration : 1h 38mn
    Bit rate mode : Variable
    Bit rate : 1 bps
    Stream size : 474 Bytes (0%)
    Title : Russian forced
    Language : Russian
    Encoded date : UTC 2015-12-04 23:01:13
    Tagged date : UTC 2015-12-04 23:02:00
    Text #2
    ID : 9
    Format : Timed Text
    Muxing mode : sbtl
    Codec ID : tx3g
    Duration : 33mn 27s
    Bit rate mode : Variable
    Bit rate : 1 bps
    Stream size : 215 Bytes (0%)
    Title : English forced
    Language : English
    Encoded date : UTC 2015-12-04 23:01:13
    Tagged date : UTC 2015-12-04 23:01:35
    Text #3
    ID : 10
    Format : Timed Text
    Muxing mode : sbtl
    Codec ID : tx3g
    Duration : 1h 40mn
    Bit rate mode : Variable
    Bit rate : 127 bps
    Stream size : 93.6 KiB (0%)
    Title : Russian full
    Language : Russian
    Encoded date : UTC 2015-12-04 23:01:13
    Tagged date : UTC 2015-12-04 23:02:01
    Text #4
    ID : 11
    Format : Timed Text
    Muxing mode : sbtl
    Codec ID : tx3g
    Duration : 1h 37mn
    Bit rate mode : Variable
    Bit rate : 84 bps
    Stream size : 60.4 KiB (0%)
    Title : English full
    Language : English
    Encoded date : UTC 2015-12-04 23:01:13
    Tagged date : UTC 2015-12-04 23:02:00
    Text #5
    ID : 12
    Format : Timed Text
    Muxing mode : sbtl
    Codec ID : tx3g
    Duration : 1h 40mn
    Bit rate mode : Variable
    Bit rate : 132 bps
    Stream size : 97.2 KiB (0%)
    Title : Ukrainian full
    Language : Ukrainian
    Encoded date : UTC 2015-12-04 23:01:13
    Tagged date : UTC 2015-12-04 23:02:01
    Menu #1
    00:00:00.000 : Chapter 01
    00:04:54.043 : Chapter 02
    00:10:21.662 : Chapter 03
    00:14:51.765 : Chapter 04
    00:19:51.815 : Chapter 05
    00:26:19.869 : Chapter 06
    00:32:57.809 : Chapter 07
    00:40:35.474 : Chapter 08
    00:47:40.482 : Chapter 09
    00:52:33.275 : Chapter 10
    00:58:56.074 : Chapter 11
    01:05:07.695 : Chapter 12
    01:09:23.075 : Chapter 13
    01:18:13.021 : Chapter 14
    01:27:54.185 : Chapter 15
    01:33:53.002 : Chapter 16
    Menu #2
    ID : 13
    Codec ID : text
    Duration : 1h 45mn
    Language : English
    Encoded date : UTC 2015-12-04 23:02:03
    Tagged date : UTC 2015-12-04 23:02:03
    Bit rate mode : CBR
    00:00:00.000 : Chapter 01
    00:04:54.043 : Chapter 02
    00:10:21.662 : Chapter 03
    00:14:51.765 : Chapter 04
    00:19:51.815 : Chapter 05
    00:26:19.869 : Chapter 06
    00:32:57.809 : Chapter 07
    00:40:35.474 : Chapter 08
    00:47:40.482 : Chapter 09
    00:52:33.275 : Chapter 10
    00:58:56.074 : Chapter 11
    01:05:07.695 : Chapter 12
    01:09:23.075 : Chapter 13
    01:18:13.021 : Chapter 14
    01:27:54.185 : Chapter 15
    01:33:53.002 : Chapter 16

    x264 лог

    x264 [info]: frame I:1744  Avg QP:15.18  size:101110
    x264 [info]: frame P:64374 Avg QP:17.76  size: 29654
    x264 [info]: frame B:86114 Avg QP:20.71  size:  7965
    x264 [info]: consecutive B-frames:  5.6% 52.4% 13.8% 28.3%
    x264 [info]: mb I  I16..4:  7.6% 51.2% 41.2%
    x264 [info]: mb P  I16..4:  1.7%  5.4%  3.6%  P16..4: 46.0% 24.3% 11.2%  0.0%  0.0%    skip: 7.8%
    x264 [info]: mb B  I16..4:  0.2%  1.1%  1.0%  B16..8: 40.6%  9.4%  1.7%  direct: 2.9%  skip:43.1%  L0:37.4% L1:52.3% BI:10.3%
    x264 [info]: 8x8 transform intra:50.7% inter:41.7%
    x264 [info]: coded y,uvDC,uvAC intra: 81.7% 87.3% 72.0% inter: 22.2% 23.0% 15.0%
    x264 [info]: i16 v,h,dc,p: 42% 20%  7% 31%
    x264 [info]: i8 v,h,dc,ddl,ddr,vr,hd,vl,hu: 10% 10%  6% 10% 13% 14% 13% 11% 12%
    x264 [info]: i4 v,h,dc,ddl,ddr,vr,hd,vl,hu: 11% 12%  4% 11% 15% 14% 14% 10% 10%
    x264 [info]: i8c dc,h,v,p: 48% 20% 20% 13%
    x264 [info]: ref P L0: 73.6% 15.4% 11.0%
    x264 [info]: ref B L0: 81.9% 18.1%
    x264 [info]: kb/s:3491.60

    Скриншоты

    -

    Релиз подготовлен для просмотра на Apple TV, iPad, iPhone, iPod Touch.
    Для просмотра данного релиза на компьютере с ОС Windows рекомендуется использовать VLC media player
    Скачать .torrent

    Скачать торрент-файл бесплатно и на максимальной скорости!

    Как скачивать? · Что такое торрент? · Рейтинг и ограничения

    !ВНИМАНИЕ!
    Сайт не распространяет и не хранит электронные версии произведений, а занимается лишь лишь предоставлением доступа к создаваемому пользователями каталогу ссылок на торрент-файлы, которые содержат только списки хеш-сумм, убедительная просьба с жалобами обращаться напрямую к пользователю. Файлы для обмена на трекере предоставлены пользователями сайта, и администрация не несёт ответственности за их содержание. Просьба не заливать файлы, защищенные авторскими правами, а также файлы нелегального содержания!


    _________________
    [Профиль] [ЛС]
    Показать сообщения:    
    Ответить на тему

    Текущее время: Сегодня, в 08:02

    Часовой пояс: GMT + 2



    Вы не можете начинать темы
    Вы не можете отвечать на сообщения
    Вы не можете редактировать свои сообщения
    Вы не можете удалять свои сообщения
    Вы не можете голосовать в опросах
    Вы не можете прикреплять файлы к сообщениям
    Вы не можете скачивать файлы