BitTorrentTracker PerecTracker.org
BitTorrentTracker PerecTracker.org
    
Регистрация  ·  Вход
 
 · 
Забыли пароль?

  • [ATV3] Синдром Петрушки (Елена Хазанова / Elena Hazanov) [2015, Россия, Швейцария, Германия , Драма, WEB-DL, HD (1080p)] Original

    Ответить на тему
     
    Автор Сообщение

    Flirldrerve

    Создавать темы 23-Дек-2015 12:15

           

    [Цитировать]

    Синдром Петрушки
    -
    6.80 / 10
    -Год выпуска: 2015
    Страна: Россия, Швейцария, Германия
    Жанр: Драма
    Продолжительность: 01:37:50
    Перевод: Не требуется
    Оригинальная аудиодорожка: Есть
    Cубтитры: Нет
    Режиссёр: Елена Хазанова
    Сценарий: Алена Алова, Дина Рубина
    Продюсер: Евгений Миронов, Дмитрий Аронин, Александр Новин
    Оператор: Азиз Жамбакиев
    Композитор: Елена Хазанова
    Художник: Наталья Навоенко, Галина Николаева
    В ролях: Евгений Миронов, Чулпан Хаматова, Мераб Нинидзе, Зураб Кипшидзе, Александр Кузнецов, Алина Гвасалия, Алексей Любимов, Владимир Селезнев, Юлия Марченко, Эра Зиганшина
    Бюджет: €2 000 000
    Сборы в России: $163 891
    Мировая премьера:
    Премьера (РФ): 5 ноября 2015, «Экспонента»
    Описание: Петр страстно любит свою жену Лизу и фанатично предан своей работе. Он создает марионеток. Главным его шедевром становится точная копия Лизы. Он одержим своим творением, грань между вымыслом и реальностью, куклой и живой женщиной стирается в его воображении. Ведь самая увлекательная игрушка — это чужая жизнь…-Качество исходника: WEB-DL 1080p (NNMClub)
    Качество: WEB-DL
    Тип: HD (1080p)
    Контейнер: M4V
    Видео: H.264, 1920x802, 2.40:1, 4 420 Kbps, 25.000 fps
    Аудио 1: Русский/Оригинальная дорожка , AAC / 2.0 / 157 Kbps / 48.0 KHz
    Аудио 2: Русский/Оригинальная дорожка , AC-3 / 5.1 / 384 Kbps / 48.0 KHz
    -

    iTunes Meta Tags

    Sort Name: Синдром Петрушки
    XID: Apple:vendor_id:2015-838726
    contentID: 1060270110
    Copyright: © 2015 Экспонента
    Screenwriters: Алена Алова, Дина Рубина
    Producers: Евгений Миронов, Дмитрий Аронин, Александр Новин
    Director: Елена Хазанова
    Cast: Евгений Миронов, Чулпан Хаматова, Мераб Нинидзе, Зураб Кипшидзе, Александр Кузнецов, Алина Гвасалия, Алексей Любимов, Владимир Селезнев, Юлия Марченко, Эра Зиганшина
    Studio: Третий Рим
    Rating: 135
    Long Description: Петр страстно любит свою жену Лизу и фанатично предан своей работе. Он создает марионеток. Главным его шедевром становится точная копия Лизы. Он одержим своим творением, грань между вымыслом и реальностью, куклой и живой женщиной стирается в его воображении. Ведь самая увлекательная игрушка - это чужая жизнь...
    Description: Петр страстно любит свою жену Лизу и фанатично предан своей работе. Он создает марионеток. Главным его шедевром становится точная копия Лизы. Он одержим своим творением, грань между вымыслом и реальностью, куклой и живой женщиной стирается в его воображении. Ведь самая увлекательная игрушка - это чужая жизнь...
    Release Date: 2015-01-01T08:00:00Z
    Genre: Русское кино
    Artist: Елена Хазанова
    Name: Синдром Петрушки

    MediaInfo

    General
    Complete name : /Users/imac/HandBrake/Sindrom.Petrushki.WEB-DL.1080p.m4v
    Format : MPEG-4
    Codec ID : M4V
    File size : 3.39 GiB
    Duration : 1h 37mn
    Overall bit rate mode : Variable
    Overall bit rate : 4 966 Kbps
    Movie name : Синдром Петрушки
    Performer : Елена Хазанова
    Director : Елена Хазанова
    Actor : Евгений Миронов / Чулпан Хаматова / Мераб Нинидзе / Зураб Кипшидзе / Александр Кузнецов / Алина Гвасалия / Алексей Любимов / Владимир Селезнев / Юлия Марченко / Эра Зиганшина
    Screenplay by : Алена Алова / Дина Рубина
    Producer : Евгений Миронов / Дмитрий Аронин / Александр Новин
    Production studio : Третий Рим
    Genre : Русское кино
    ContentType : Short Film
    Description : Петр страстно любит свою жену Лизу и фанатично предан своей работе. Он создает марионеток. Главным его шедевром становится точная копия Лизы. Он одержим своим творением, грань между вымыслом и реальностью, куклой и живой женщиной стирается в его воображении. Ведь самая увлекательная игрушка - это чужая жизнь...
    Recorded date : UTC 2015-01-01 08:00:00
    Encoded date : UTC 2015-12-06 08:54:48
    Tagged date : UTC 2015-12-06 08:56:24
    Copyright : © 2015 Экспонента
    Cover : Yes
    Rating : None
    Title/Sort : Синдром Петрушки
    LongDescription : Петр страстно любит свою жену Лизу и фанатично предан своей работе. Он создает марионеток. Главным его шедевром становится точная копия Лизы. Он одержим своим творением, грань между вымыслом и реальностью, куклой и живой женщиной стирается в его воображении. Ведь самая увлекательная игрушка - это чужая жизнь...
    AppleStoreCatalogID : 1060270110
    Vendor : Apple:vendor_id:2015-838726
    ContentRating : ru-movie|16+|375|
    Video #1
    ID : 1
    Format : AVC
    Format/Info : Advanced Video Codec
    Format profile : High@L4
    Format settings, CABAC : Yes
    Format settings, ReFrames : 5 frames
    Format settings, GOP : M=2, N=124
    Codec ID : avc1
    Codec ID/Info : Advanced Video Coding
    Duration : 1h 37mn
    Bit rate : 4 420 Kbps
    Width : 1 920 pixels
    Height : 802 pixels
    Display aspect ratio : 2.40:1
    Frame rate mode : Constant
    Frame rate : 25.000 fps
    Color space : YUV
    Chroma subsampling : 4:2:0
    Bit depth : 8 bits
    Scan type : Progressive
    Bits/(Pixel*Frame) : 0.115
    Stream size : 3.02 GiB (89%)
    Title : Main Program
    Language : Russian
    Encoded date : UTC 2015-12-06 08:54:48
    Tagged date : UTC 2015-12-06 08:55:32
    Color range : Limited
    Color primaries : BT.709
    Transfer characteristics : BT.709
    Matrix coefficients : BT.709
    Video #2
    ID : 5
    Format : JPEG
    Codec ID : jpeg
    Duration : 1h 37mn
    Bit rate mode : Variable
    Bit rate : 791 bps
    Width : 640 pixels
    Height : 267 pixels
    Display aspect ratio : 2.40:1
    Frame rate mode : Variable
    Frame rate : 0.003 fps
    Minimum frame rate : 0.002 fps
    Maximum frame rate : 0.003 fps
    Color space : YUV
    Chroma subsampling : 4:2:0
    Bit depth : 8 bits
    Compression mode : Lossy
    Bits/(Pixel*Frame) : 1.543
    Stream size : 547 KiB (0%)
    Title : Chapter Images
    Language : Russian
    Encoded date : UTC 2015-12-06 08:55:38
    Tagged date : UTC 2015-12-06 08:55:38
    Audio #1
    ID : 2
    Format : AAC
    Format/Info : Advanced Audio Codec
    Format profile : LC
    Codec ID : 40
    Duration : 1h 37mn
    Bit rate mode : Variable
    Bit rate : 157 Kbps
    Maximum bit rate : 228 Kbps
    Channel(s) : 2 channels
    Channel positions : Front: L R
    Sampling rate : 48.0 KHz
    Compression mode : Lossy
    Stream size : 110 MiB (3%)
    Title : Russian Stereo
    Language : Russian
    Encoded date : UTC 2015-12-06 08:54:48
    Tagged date : UTC 2015-12-06 08:54:53
    Audio #2
    ID : 3
    Format : AC-3
    Format/Info : Audio Coding 3
    Mode extension : CM (complete main)
    Format settings, Endianness : Big
    Codec ID : ac-3
    Duration : 1h 37mn
    Bit rate mode : Constant
    Bit rate : 384 Kbps
    Channel(s) : 6 channels
    Channel positions : Front: L C R, Side: L R, LFE
    Sampling rate : 48.0 KHz
    Bit depth : 16 bits
    Compression mode : Lossy
    Stream size : 269 MiB (8%)
    Title : Russian DD 5.1
    Language : Russian
    Encoded date : UTC 2015-12-06 08:54:48
    Tagged date : UTC 2015-12-06 08:54:52
    Menu #1
    00:00:00.000 : Глава 1
    00:05:16.000 : Глава 2
    00:11:12.000 : Глава 3
    00:16:27.000 : Глава 4
    00:22:05.000 : Глава 5
    00:27:36.000 : Глава 6
    00:33:10.000 : Глава 7
    00:39:05.000 : Глава 8
    00:44:24.000 : Глава 9
    00:49:25.000 : Глава 10
    00:55:22.000 : Глава 11
    01:00:44.000 : Глава 12
    01:05:54.000 : Глава 13
    01:11:15.000 : Глава 14
    01:17:43.000 : Глава 15
    01:23:12.000 : Глава 16
    01:29:43.000 : Глава 17
    Menu #2
    ID : 4
    Codec ID : text
    Duration : 1h 37mn
    Language : Russian
    Encoded date : UTC 2015-12-06 08:55:32
    Tagged date : UTC 2015-12-06 08:55:32
    00:00:00.000 : Глава 1
    00:05:16.000 : Глава 2
    00:11:12.000 : Глава 3
    00:16:27.000 : Глава 4
    00:22:05.000 : Глава 5
    00:27:36.000 : Глава 6
    00:33:10.000 : Глава 7
    00:39:05.000 : Глава 8
    00:44:24.000 : Глава 9
    00:49:25.000 : Глава 10
    00:55:22.000 : Глава 11
    01:00:44.000 : Глава 12
    01:05:54.000 : Глава 13
    01:11:15.000 : Глава 14
    01:17:43.000 : Глава 15
    01:23:12.000 : Глава 16
    01:29:43.000 : Глава 17
    Bit rate mode : VBR

    Скриншоты

    -

    Релиз подготовлен для просмотра на Apple TV, iPad, iPhone, iPod Touch.
    Для просмотра данного релиза на компьютере с ОС Windows рекомендуется использовать VLC media player
    Скачать .torrent

    Скачать торрент-файл бесплатно и на максимальной скорости!

    Как скачивать? · Что такое торрент? · Рейтинг и ограничения

    !ВНИМАНИЕ!
    Сайт не распространяет и не хранит электронные версии произведений, а занимается лишь лишь предоставлением доступа к создаваемому пользователями каталогу ссылок на торрент-файлы, которые содержат только списки хеш-сумм, убедительная просьба с жалобами обращаться напрямую к пользователю. Файлы для обмена на трекере предоставлены пользователями сайта, и администрация не несёт ответственности за их содержание. Просьба не заливать файлы, защищенные авторскими правами, а также файлы нелегального содержания!


    _________________
    [Профиль] [ЛС]
    Показать сообщения:    
    Ответить на тему

    Текущее время: Сегодня, в 20:44

    Часовой пояс: GMT + 2



    Вы не можете начинать темы
    Вы не можете отвечать на сообщения
    Вы не можете редактировать свои сообщения
    Вы не можете удалять свои сообщения
    Вы не можете голосовать в опросах
    Вы не можете прикреплять файлы к сообщениям
    Вы не можете скачивать файлы