BitTorrentTracker PerecTracker.org
BitTorrentTracker PerecTracker.org
    
Регистрация  ·  Вход
 
 · 
Забыли пароль?

  • Северино / Severino (Клаус Добберке) [1978, Германия (ГДР), драма, вестерн, BDRip HD (720p), SD (480p)] AVO, Original

    Ответить на тему
     
    Автор Сообщение

    Flirldrerve

    Создавать темы 23-Дек-2015 12:15

           

    [Цитировать]

    Северино / Severino
    6.045 / 10
    -Год выпуска: 1978
    Страна: Германия (ГДР)
    Жанр: драма, вестерн
    Продолжительность: 87 мин.
    Перевод: Одноголосый закадровый авторский перевод
    Оригинальная аудиодорожка: Есть
    Cубтитры: Нет
    Режиссёр: Клаус Добберке
    Сценарий: Инге Борд, Эдуард Клейн
    Оператор: Ганс Генрих
    Композитор: Гюнтер Фишер
    Художник: Хайнц Рёске, Инге Кистнер
    Монтаж: Рената Баде, Моника Шиндлер
    В ролях: Гойко Митич, Виолетта Андрей, Constantin Fugasin, Мирча Ангелеску, Эманоил Петруц, Леон Немчик, Хельмут Шрайбер, Томас Вольф, Ион Дикисяну, Юрие Дарие
    Мировая премьера: 30 июня 1978
    Описание: Северино, южноамериканский индеец племени манзанеро, возвращается в родную деревню после 10-летнего отсутствия, чтобы забрать с собой своего младшего брата. Он работал у белых, накопил денег и теперь собирается купить земельный участок на Севере, чтобы начать новую жизнь.
    Но в его родной деревне драматически обострилась ситуация. Кто-то угоняет скот, нападает на индейцев и на белых поселенцев, явно желая натравить их друг на друга. Северино остается, он хочет добиться, чтобы индейцы мирно жили рядом с белыми...-Качество исходника: BD-Remux 1080p (HDClub)
    Качество: BDRip
    Тип: 480p 720p
    Контейнер: m4v
    Видео: 640x480 анаморф 800x480 at 25.000 fps, MPEG-4 AVC, ~1800 kbps avg
    Видео: 1200x720 at 25.000 fps, MPEG-4 AVC, ~7000 kbps avg
    Аудио#1: Russian: 48 kHz, ААС, 2/0 (L,R), ~128.00 / 160.00 kbps avg |Одноголосый закадровый, В. Дорошенко (Студия "Довженко")|
    Аудио#2: German: 48 kHz, ААС, 2/0 (L,R), ~128.00 / 160.00 kbps avg-

    iTunes Meta Tags for country de

    Sort Name: Severino
    XID: Apple:vendor_id:1978-84917
    contentID: 84917
    Screenwriters: Инге Борд, Эдуард Клейн
    Director: Клаус Добберке
    Cast: Гойко Митич, Виолетта Андрей, Constantin Fugasin, Мирча Ангелеску, Эманоил Петруц, Леон Немчик, Хельмут Шрайбер, Томас Вольф, Ион Дикисяну, Юрие Дарие
    Rating: 12+
    Long Description: Северино, южноамериканский индеец племени манзанеро, возвращается в родную деревню после 10-летнего отсутствия, чтобы забрать с собой своего младшего брата. Он работал у белых, накопил денег и теперь собирается купить земельный участок на Севере, чтобы начать новую жизнь.
    Но в его родной деревне драматически обострилась ситуация. Кто-то угоняет скот, нападает на индейцев и на белых поселенцев, явно желая натравить их друг на друга. Северино остается, он хочет добиться, чтобы индейцы мирно жили рядом с белыми...
    Description: Северино, южноамериканский индеец племени манзанеро, возвращается в родную деревню после 10-летнего отсутствия, чтобы забрать с собой своего младшего брата. Он работал у белых, накопил денег и теперь собирается купить земельный участок на Севере, чтобы начать новую жизнь...
    Release Date: 1978-06-30T08:00:00Z
    Genre: Western
    Artist: Claus Dobberke
    Name: Severino

    MediaInfo 480p Release

    Общее
    Полное имя : Severino.m4v
    Формат : MPEG-4
    Идентификатор кодека : M4V  (M4V /M4A /mp42/isom)
    Размер файла : 1,12 Гбайт
    Продолжительность : 1 ч. 18 м.
    Режим общего битрейта : Переменный
    Общий поток : 2045 Кбит/сек
    Название фильма : Severino
    Исполнитель : Claus Dobberke
    Режиссёр : Клаус Добберке
    Исполнитель : Гойко Митич / Виолетта Андрей / Constantin Fugasin / Мирча Ангелеску / Эманоил Петруц / Леон Немчик / Хельмут Шрайбер / Томас Вольф / Ион Дикисяну / Юрие Дарие
    Сценарист : Инге Борд / Эдуард Клейн
    Жанр : Western
    Тип содержимого : Short Film
    Описание : Северино, южноамериканский индеец племени манзанеро, возвращается в родную деревню после 10-летнего отсутствия, чтобы забрать с собой своего младшего брата. Он работал у белых, накопил денег и теперь собирается купить земельный участок на Севере, чтобы начать новую жизнь...
    Дата записи : UTC 1978-06-30 08:00:00
    Дата кодирования : UTC 2015-11-27 07:08:52
    Дата пометки : UTC 2015-11-27 07:23:52
    Обложка : Yes
    Рейтинг : None
    Title/Sort : Severino
    LongDescription : Северино, южноамериканский индеец племени манзанеро, возвращается в родную деревню после 10-летнего отсутствия, чтобы забрать с собой своего младшего брата. Он работал у белых, накопил денег и теперь собирается купить земельный участок на Севере, чтобы начать новую жизнь. / Но в его родной деревне драматически обострилась ситуация. Кто-то угоняет скот, нападает на индейцев и на белых поселенцев, явно желая натравить их друг на друга. Северино остается, он хочет добиться, чтобы индейцы мирно жили рядом с белыми...
    AppleStoreCatalogID : 84917
    Vendor : Apple:vendor_id:1978-84917
    ContentRating : ru-movie|12+|200|
    Видео #1
    Идентификатор : 1
    Формат : AVC
    Формат/Информация : Advanced Video Codec
    Профиль формата : Baseline@L3
    Параметр CABAC формата : Нет
    Параметр ReFrames формата : 2 кадра
    Идентификатор кодека : avc1
    Идентификатор кодека/Информация : Advanced Video Coding
    Продолжительность : 1 ч. 18 м.
    Битрейт : 1800 Кбит/сек
    Ширина : 640 пикселей
    Высота : 480 пикселей
    Соотношение сторон : 5:3
    Режим частоты кадров : Постоянный
    Частота кадров : 25,000 кадров/сек
    Цветовое пространство : YUV
    Субдискретизация насыщенности : 4:2:0
    Битовая глубина : 8 бит
    Тип развёртки : Прогрессивная
    Бит/(Пиксели*Кадры) : 0.234
    Размер потока : 1011 Мбайт (88%)
    Заголовок : Main Program
    Библиотека кодирования : x264 core 130 r2273 b3065e6
    Настройки программы : cabac=0 / ref=2 / deblock=1:0:0 / analyse=0x1:0x111 / me=umh / subme=6 / psy=1 / psy_rd=1.00:0.00 / mixed_ref=1 / me_range=16 / chroma_me=1 / trellis=0 / 8x8dct=0 / cqm=0 / deadzone=21,11 / fast_pskip=1 / chroma_qp_offset=-2 / threads=18 / lookahead_threads=3 / sliced_threads=0 / nr=0 / decimate=1 / interlaced=0 / bluray_compat=0 / constrained_intra=0 / bframes=0 / weightp=0 / keyint=250 / keyint_min=25 / scenecut=40 / intra_refresh=0 / rc_lookahead=40 / rc=2pass / mbtree=1 / bitrate=1800 / ratetol=1.0 / qcomp=0.60 / qpmin=0 / qpmax=69 / qpstep=4 / cplxblur=20.0 / qblur=0.5 / vbv_maxrate=5000 / vbv_bufsize=5000 / nal_hrd=none / ip_ratio=1.40 / aq=1:1.00
    Язык : German
    Дата кодирования : UTC 2015-11-27 07:08:52
    Дата пометки : UTC 2015-11-27 07:09:14
    Color range : Limited
    Основные цвета : BT.709
    Характеристики трансфера : BT.709
    Коэффициенты матрицы : BT.709
    Menus : 4,5
    Видео #2
    Идентификатор : 5
    Формат : JPEG
    Идентификатор кодека : jpeg
    Продолжительность : 1 ч. 18 м.
    Вид битрейта : Переменный
    Битрейт : 371 бит/сек
    Ширина : 640 пикселей
    Высота : 384 пикселя
    Соотношение сторон : 5:3
    Режим частоты кадров : Переменный
    Частота кадров : 0,001 кадр/сек
    Минимальная частота кадров : 0,001 кадр/сек
    Максимальная частота кадров : 0,004 кадр/сек
    Цветовое пространство : YUV
    Субдискретизация насыщенности : 4:2:0
    Битовая глубина : 8 бит
    Метод сжатия : С потерями
    Бит/(Пиксели*Кадры) : 1.510
    Размер потока : 272 Кбайт (0%)
    Заголовок : Chapter Images
    Язык : German
    Default : Нет
    Дата кодирования : UTC 2015-11-27 07:09:16
    Дата пометки : UTC 2015-11-27 07:09:16
    Menu For : 1
    Аудио #1
    Идентификатор : 2
    Формат : AAC
    Формат/Информация : Advanced Audio Codec
    Профиль формата : LC
    Идентификатор кодека : 40
    Продолжительность : 1 ч. 18 м.
    Вид битрейта : Переменный
    Битрейт : 132 Кбит/сек
    Максимальный битрейт : 216 Кбит/сек
    Каналы : 2 канала
    Расположение каналов : Front: L R
    Частота : 48,0 КГц
    Частота кадров : 46,875 кадров/сек (1024 spf)
    Метод сжатия : С потерями
    Размер потока : 73,3 Мбайт (6%)
    Заголовок : Russian AVO V.Doroshenko (studiya Dovzhenko) Stereo
    Язык : Russian
    Default : Да
    Alternate group : 1
    Дата кодирования : UTC 2015-11-27 07:08:52
    Дата пометки : UTC 2015-11-27 07:09:15
    Menus : 4
    Аудио #2
    Идентификатор : 3
    Формат : AAC
    Формат/Информация : Advanced Audio Codec
    Профиль формата : LC
    Идентификатор кодека : 40
    Продолжительность : 1 ч. 18 м.
    Вид битрейта : Переменный
    Битрейт : 109 Кбит/сек
    Максимальный битрейт : 121 Кбит/сек
    Каналы : 2 канала
    Расположение каналов : Front: L R
    Частота : 48,0 КГц
    Частота кадров : 46,875 кадров/сек (1024 spf)
    Метод сжатия : С потерями
    Размер потока : 60,9 Мбайт (5%)
    Заголовок : German Stereo
    Язык : German
    Default : Нет
    Alternate group : 1
    Дата кодирования : UTC 2015-11-27 07:08:52
    Дата пометки : UTC 2015-11-27 07:09:15
    Меню #1
    00:00:00.000 : 1
    00:15:03.600 : 2
    00:28:55.720 : 3
    00:41:33.960 : 4
    00:57:46.480 : 5
    01:13:55.360 : 6
    Меню #2
    Идентификатор : 4
    Идентификатор кодека : text
    Продолжительность : 1 ч. 18 м.
    Заголовок : Chapter Titles
    Язык : German
    Дата кодирования : UTC 2015-11-27 07:09:15
    Дата пометки : UTC 2015-11-27 07:09:15
    Вид битрейта : CBR
    Menu For : 2,1
    00:00:00.000 : 1
    00:15:03.600 : 2
    00:28:55.720 : 3
    00:41:33.960 : 4
    00:57:46.480 : 5
    01:13:55.360 : 6

    MediaInfo 720p Release

    Общее
    Полное имя : Severino (HD).m4v
    Формат : MPEG-4
    Идентификатор кодека : M4V  (M4V /M4A /mp42/isom)
    Размер файла : 4,00 Гбайт
    Продолжительность : 1 ч. 18 м.
    Режим общего битрейта : Переменный
    Общий поток : 7296 Кбит/сек
    Название фильма : Severino
    Исполнитель : Claus Dobberke
    Режиссёр : Клаус Добберке
    Исполнитель : Гойко Митич / Виолетта Андрей / Constantin Fugasin / Мирча Ангелеску / Эманоил Петруц / Леон Немчик / Хельмут Шрайбер / Томас Вольф / Ион Дикисяну / Юрие Дарие
    Сценарист : Инге Борд / Эдуард Клейн
    Жанр : Western
    Тип содержимого : Short Film
    Описание : Северино, южноамериканский индеец племени манзанеро, возвращается в родную деревню после 10-летнего отсутствия, чтобы забрать с собой своего младшего брата. Он работал у белых, накопил денег и теперь собирается купить земельный участок на Севере, чтобы начать новую жизнь...
    Дата записи : UTC 1978-06-30 08:00:00
    Дата кодирования : UTC 2015-11-27 06:13:56
    Дата пометки : UTC 2015-11-27 07:25:49
    Обложка : Yes
    Рейтинг : None
    Title/Sort : Severino
    LongDescription : Северино, южноамериканский индеец племени манзанеро, возвращается в родную деревню после 10-летнего отсутствия, чтобы забрать с собой своего младшего брата. Он работал у белых, накопил денег и теперь собирается купить земельный участок на Севере, чтобы начать новую жизнь. / Но в его родной деревне драматически обострилась ситуация. Кто-то угоняет скот, нападает на индейцев и на белых поселенцев, явно желая натравить их друг на друга. Северино остается, он хочет добиться, чтобы индейцы мирно жили рядом с белыми...
    HDVideo : Yes
    AppleStoreCatalogID : 84917
    Vendor : Apple:vendor_id:1978-84917
    ContentRating : ru-movie|12+|200|
    Видео #1
    Идентификатор : 1
    Формат : AVC
    Формат/Информация : Advanced Video Codec
    Профиль формата : High@L3.1
    Параметр CABAC формата : Нет
    Параметр ReFrames формата : 3 кадра
    Идентификатор кодека : avc1
    Идентификатор кодека/Информация : Advanced Video Coding
    Продолжительность : 1 ч. 18 м.
    Продолжительность оригинала : 1 ч. 18 м.
    Номинальный битрейт : 7000 Кбит/сек
    Ширина : 1200 пикселей
    Высота : 720 пикселей
    Соотношение сторон : 5:3
    Режим частоты кадров : Постоянный
    Частота кадров : 25,000 кадров/сек
    Цветовое пространство : YUV
    Субдискретизация насыщенности : 4:2:0
    Битовая глубина : 8 бит
    Тип развёртки : Прогрессивная
    Бит/(Пиксели*Кадры) : 0.324
    Размер потока оригинала : 3,83 Гбайт (96%)
    Заголовок : Main Program
    Библиотека кодирования : x264 core 130 r2273 b3065e6
    Настройки программы : cabac=0 / ref=3 / deblock=1:-3:-2 / analyse=0x3:0x113 / me=umh / subme=9 / psy=1 / psy_rd=1.00:0.25 / mixed_ref=1 / me_range=32 / chroma_me=1 / trellis=0 / 8x8dct=1 / cqm=0 / deadzone=21,11 / fast_pskip=0 / chroma_qp_offset=-2 / threads=18 / lookahead_threads=1 / sliced_threads=0 / nr=0 / decimate=0 / interlaced=0 / bluray_compat=0 / constrained_intra=0 / bframes=3 / b_pyramid=0 / b_adapt=2 / b_bias=0 / direct=1 / weightb=0 / open_gop=0 / weightp=0 / keyint=250 / keyint_min=25 / scenecut=40 / intra_refresh=0 / rc_lookahead=40 / rc=2pass / mbtree=1 / bitrate=7000 / ratetol=1.0 / qcomp=0.60 / qpmin=0 / qpmax=69 / qpstep=4 / cplxblur=20.0 / qblur=0.5 / vbv_maxrate=9500 / vbv_bufsize=9500 / nal_hrd=none / ip_ratio=1.40 / aq=1:0.80
    Язык : German
    Дата кодирования : UTC 2015-11-27 06:13:56
    Дата пометки : UTC 2015-11-27 06:14:59
    Color range : Limited
    Основные цвета : BT.709
    Характеристики трансфера : BT.709
    Коэффициенты матрицы : BT.709
    Menus : 4,5
    Видео #2
    Идентификатор : 5
    Формат : JPEG
    Идентификатор кодека : jpeg
    Продолжительность : 1 ч. 18 м.
    Вид битрейта : Переменный
    Битрейт : 430 бит/сек
    Ширина : 640 пикселей
    Высота : 384 пикселя
    Соотношение сторон : 5:3
    Режим частоты кадров : Переменный
    Частота кадров : 0,001 кадр/сек
    Минимальная частота кадров : 0,001 кадр/сек
    Максимальная частота кадров : 0,004 кадр/сек
    Цветовое пространство : YUV
    Субдискретизация насыщенности : 4:2:0
    Битовая глубина : 8 бит
    Метод сжатия : С потерями
    Бит/(Пиксели*Кадры) : 1.750
    Размер потока : 315 Кбайт (0%)
    Заголовок : Chapter Images
    Язык : German
    Default : Нет
    Дата кодирования : UTC 2015-11-27 06:18:21
    Дата пометки : UTC 2015-11-27 06:18:21
    Menu For : 1
    Аудио #1
    Идентификатор : 2
    Формат : AAC
    Формат/Информация : Advanced Audio Codec
    Профиль формата : LC
    Идентификатор кодека : 40
    Продолжительность : 1 ч. 18 м.
    Вид битрейта : Переменный
    Битрейт : 163 Кбит/сек
    Максимальный битрейт : 259 Кбит/сек
    Каналы : 2 канала
    Расположение каналов : Front: L R
    Частота : 48,0 КГц
    Частота кадров : 46,875 кадров/сек (1024 spf)
    Метод сжатия : С потерями
    Размер потока : 91,6 Мбайт (2%)
    Заголовок : Russian AVO V.Doroshenko (studiya Dovzhenko) Stereo
    Язык : Russian
    Default : Да
    Alternate group : 1
    Дата кодирования : UTC 2015-11-27 06:13:56
    Дата пометки : UTC 2015-11-27 06:14:00
    Menus : 4
    Аудио #2
    Идентификатор : 3
    Формат : AAC
    Формат/Информация : Advanced Audio Codec
    Профиль формата : LC
    Идентификатор кодека : 40
    Продолжительность : 1 ч. 18 м.
    Вид битрейта : Переменный
    Битрейт : 132 Кбит/сек
    Максимальный битрейт : 148 Кбит/сек
    Каналы : 2 канала
    Расположение каналов : Front: L R
    Частота : 48,0 КГц
    Частота кадров : 46,875 кадров/сек (1024 spf)
    Метод сжатия : С потерями
    Размер потока : 74,1 Мбайт (2%)
    Заголовок : German Stereo
    Язык : German
    Default : Нет
    Alternate group : 1
    Дата кодирования : UTC 2015-11-27 06:13:56
    Дата пометки : UTC 2015-11-27 06:14:00
    Меню #1
    00:00:00.000 : 1
    00:15:03.600 : 2
    00:28:55.720 : 3
    00:41:33.960 : 4
    00:57:46.480 : 5
    01:13:55.360 : 6
    Меню #2
    Идентификатор : 4
    Идентификатор кодека : text
    Продолжительность : 1 ч. 18 м.
    Заголовок : Chapter Titles
    Язык : German
    Дата кодирования : UTC 2015-11-27 06:18:19
    Дата пометки : UTC 2015-11-27 06:18:19
    Вид битрейта : CBR
    Menu For : 2,1
    00:00:00.000 : 1
    00:15:03.600 : 2
    00:28:55.720 : 3
    00:41:33.960 : 4
    00:57:46.480 : 5
    01:13:55.360 : 6

    x264 лог 480p Release

    HandBrakeCLI -i "/SEVERINO_1978_HDCLUB/BDMV/STREAM/00005.m2ts" -t 1 -o "Severino.480p.ger.m4v" -f mp4 -I -O -w 640 -l 480 --crop 0:0:64:64 --custom-anamorphic --modulus 16 --pixel-aspect 800:640 -e x264 -b 1800 -2 -a none -x cabac=0:ref=2:me=umh:bframes=0:weightp=0:subq=6:8x8dct=0:trellis=0:vbv-maxrate=5000:vbv-bufsize=5000 --verbose=1
    x264 [info]: frame I:2633  Avg QP:21.33  size: 25377  PSNR Mean Y:42.15 U:48.14 V:49.84 Avg:43.43 Global:43.10
    x264 [info]: frame P:115122 Avg QP:22.74  size:  8625  PSNR Mean Y:40.03 U:46.05 V:46.24 Avg:41.27 Global:40.83
    x264 [info]: mb I  I16..4: 29.4%  0.0% 70.6%
    x264 [info]: mb P  I16..4:  0.7%  0.0%  2.3%  P16..4: 52.0% 20.8%  9.0%  0.0%  0.0%    skip:15.2%
    x264 [info]: coded y,uvDC,uvAC intra: 85.1% 71.1% 36.4% inter: 31.9% 25.1% 1.9%
    x264 [info]: i16 v,h,dc,p: 26% 12% 25% 37%
    x264 [info]: i4 v,h,dc,ddl,ddr,vr,hd,vl,hu: 20% 11% 26%  7%  8%  9%  7%  7%  5%
    x264 [info]: i8c dc,h,v,p: 57% 15% 22%  6%
    x264 [info]: ref P L0: 75.9% 24.1%
    x264 [info]: SSIM Mean Y:0.9581695 (13.785db)
    x264 [info]: PSNR Mean Y:40.079 U:46.097 V:46.323 Avg:41.315 Global:40.873 kb/s:1799.82

    x264 лог 720p Release

    HandBrakeCLI -i "/SEVERINO_1978_HDCLUB/BDMV/STREAM/00005.m2ts" -t 1 -o "Severino.720p.ger.m4v" -f mp4 -4 -O -w 1200 -l 720 --crop 0:0:64:64 --modulus 16 -e x264 -b 7000 -2 -a none -x cabac=0:ref=3:me=umh:b-pyramid=none:b-adapt=2:weightb=0:trellis=0:weightp=0:vbv-maxrate=9500:vbv-bufsize=9500:subq=9:merange=32:deblock=-3,-2:qcomp=0.60:qpmin=0:qpmax=69:fast_pskip=0:aq-strength=0.8:no-dct-decimate=1:psy-rd=1.00,0.25 --verbose=1
    x264 [info]: frame I:794   Avg QP:19.60  size:156543  PSNR Mean Y:43.06 U:49.92 V:50.11 Avg:44.37 Global:43.81
    x264 [info]: frame P:37143 Avg QP:22.60  size: 67465  PSNR Mean Y:39.46 U:47.66 V:47.89 Avg:40.89 Global:40.33
    x264 [info]: frame B:79818 Avg QP:25.15  size: 18630  PSNR Mean Y:37.62 U:47.29 V:47.54 Avg:39.14 Global:38.46
    x264 [info]: consecutive B-frames:  1.2%  9.3% 47.6% 41.8%
    x264 [info]: mb I  I16..4:  5.6% 61.1% 33.3%
    x264 [info]: mb P  I16..4:  0.8%  8.8%  2.7%  P16..4: 42.2% 30.6% 13.3%  0.0%  0.0%    skip: 1.7%
    x264 [info]: mb B  I16..4:  0.1%  1.7%  0.3%  B16..8: 48.7% 11.0%  2.3%  direct: 7.5%  skip:28.3%  L0:41.5% L1:51.5% BI: 7.0%
    x264 [info]: 8x8 transform intra:72.6% inter:42.3%
    x264 [info]: coded y,uvDC,uvAC intra: 94.9% 66.2% 26.6% inter: 39.1% 21.0% 4.4%
    x264 [info]: i16 v,h,dc,p: 33% 13% 16% 38%
    x264 [info]: i8 v,h,dc,ddl,ddr,vr,hd,vl,hu:  7%  6%  5% 12% 17% 16% 15% 11% 10%
    x264 [info]: i4 v,h,dc,ddl,ddr,vr,hd,vl,hu:  6%  5%  2% 13% 19% 18% 15% 12% 10%
    x264 [info]: i8c dc,h,v,p: 54% 16% 20% 10%
    x264 [info]: ref P L0: 70.1% 18.1% 11.8%
    x264 [info]: ref B L0: 84.7% 15.3%
    x264 [info]: SSIM Mean Y:0.9181813 (10.871db)
    x264 [info]: PSNR Mean Y:38.235 U:47.422 V:47.670 Avg:39.726 Global:38.988 kb/s:6992.76

    Скриншоты 480p Release

    Скриншоты 720p Release

    Цитата:
    Цитата:

    • Все фильмы с Гойко Митичем в советском прокате были порезаны цензурой. Недостающие моменты переведены Юрием Сербиным.
    -

    Релиз подготовлен для просмотра на Apple TV, iPad, iPhone, iPod Touch.
    Для просмотра данного релиза на компьютере с ОС Windows рекомендуется использовать VLC media player
    Скачать .torrent

    Скачать торрент-файл бесплатно и на максимальной скорости!

    Как скачивать? · Что такое торрент? · Рейтинг и ограничения

    !ВНИМАНИЕ!
    Сайт не распространяет и не хранит электронные версии произведений, а занимается лишь лишь предоставлением доступа к создаваемому пользователями каталогу ссылок на торрент-файлы, которые содержат только списки хеш-сумм, убедительная просьба с жалобами обращаться напрямую к пользователю. Файлы для обмена на трекере предоставлены пользователями сайта, и администрация не несёт ответственности за их содержание. Просьба не заливать файлы, защищенные авторскими правами, а также файлы нелегального содержания!


    _________________
    [Профиль] [ЛС]
    Показать сообщения:    
    Ответить на тему

    Текущее время: Сегодня, в 04:10

    Часовой пояс: GMT + 2



    Вы не можете начинать темы
    Вы не можете отвечать на сообщения
    Вы не можете редактировать свои сообщения
    Вы не можете удалять свои сообщения
    Вы не можете голосовать в опросах
    Вы не можете прикреплять файлы к сообщениям
    Вы не можете скачивать файлы