BitTorrentTracker PerecTracker.org
BitTorrentTracker PerecTracker.org
    
Регистрация  ·  Вход
 
 · 
Забыли пароль?

  • Непутёвая учёба / Дурное Воспитание / The Bad Education Movie (Эллиот Хегарти / Elliot Hegarty) [2015 г., комедия, DVDRip] DVO (SNK-TV) + Original + Rus Subs

    Ответить на тему
     
    Автор Сообщение

    Light

    Создавать темы 23-Дек-2015 08:03

           

    [Цитировать]

    Непутёвая учёба / Дурное Воспитание
    The Bad Education Movie
    -Год выпуска: 2015
    Страна: Великобритания
    Жанр: Комедия
    Продолжительность: 01:30:42-Перевод: Любительский (двухголосый закадровый) - /SNK-TV/
    Субтитры: Русские - М_Васильев, Английские-Режиссёр: Эллиот Хегарти / Elliot Hegarty
    В ролях: Кае Александр, Мишель Гомес, Никки Рунэклс, Сара Солемани, Джек Бенс, Джэк Уайтхолл, Лейла Хоффман, Мэтью Хорн, Этан Лоуренс, Чарли Уэрнэм-Описание: Альфи Уикерс — самый ужасный учитель в истории человечества. Мало того, что он ничего не знает и ничему не учит, так еще и постоянно вляпывается в дурацкие истории и втягивает в них своих учеников. Они, впрочем, вполне достойны своего учителя. Редкостные оболтусы. Вот, отправились они на экскурсию в Корнуолл, но вместо осмотра достопримечательностей, веселая компания оказалась втянута в государственный переворот...-
    Скачать сэмпл-Все раздачи-Качество: DVDRip (исходник)
    Формат: AVI
    Видео кодек: Xvid
    Аудио кодек: AC3
    Видео: Xvid 720x384 23.976fps 1738kbps
    Аудио Rus: Dolby AC3 48000Hz 6ch 448kbps
    Аудио Eng: Dolby AC3 48000Hz 6ch 448kbps
    Формат субтитров: softsub (SRT)-

    Скриншот c названием фильма


    -

    Скриншоты


    -

    MediaInfo

    General
    Complete name : W:\Торка на W\The.Bad.Education.Movie.DVDrip.SNK-TV.avi
    Format : AVI
    Format/Info : Audio Video Interleave
    File size : 1.68 GiB
    Duration : 1h 30mn
    Overall bit rate : 2 648 Kbps
    Writing application : VirtualDubModRus 1.5.10.2 (build 2542/release)
    Writing library : VirtualDubMod build 2542/release
    Video
    ID : 0
    Format : MPEG-4 Visual
    Format profile : Advanced Simple@L5
    Format settings, BVOP : 2
    Format settings, QPel : No
    Format settings, GMC : No warppoints
    Format settings, Matrix : Default (H.263)
    Codec ID : XVID
    Codec ID/Hint : XviD
    Duration : 1h 30mn
    Bit rate : 1 738 Kbps
    Width : 720 pixels
    Height : 384 pixels
    Display aspect ratio : 1.85:1
    Frame rate : 23.976 fps
    Color space : YUV
    Chroma subsampling : 4:2:0
    Bit depth : 8 bits
    Scan type : Progressive
    Compression mode : Lossy
    Bits/(Pixel*Frame) : 0.262
    Stream size : 1.10 GiB (66%)
    Writing library : XviD 66
    Audio #1
    ID : 1
    Format : AC-3
    Format/Info : Audio Coding 3
    Mode extension : CM (complete main)
    Format settings, Endianness : Big
    Codec ID : 2000
    Duration : 1h 30mn
    Bit rate mode : Constant
    Bit rate : 448 Kbps
    Channel(s) : 6 channels
    Channel positions : Front: L C R, Side: L R, LFE
    Sampling rate : 48.0 KHz
    Compression mode : Lossy
    Stream size : 291 MiB (17%)
    Alignment : Split accross interleaves
    Interleave, duration : 42 ms (1.00 video frame)
    Interleave, preload duration : 500 ms
    Audio #2
    ID : 2
    Format : AC-3
    Format/Info : Audio Coding 3
    Mode extension : CM (complete main)
    Format settings, Endianness : Big
    Codec ID : 2000
    Duration : 1h 30mn
    Bit rate mode : Constant
    Bit rate : 448 Kbps
    Channel(s) : 6 channels
    Channel positions : Front: L C R, Side: L R, LFE
    Sampling rate : 48.0 KHz
    Compression mode : Lossy
    Stream size : 291 MiB (17%)
    Alignment : Aligned on interleaves
    Interleave, duration : 42 ms (1.00 video frame)
    Interleave, preload duration : 512 ms

    -

    О релизе

    Перевод: Михаил Васильев
    Редакция и озвучка: SNK-TV-Картина содержит сцены с грубым, а местами жестоким юмором. (а местами пошлым)
    Фильм основан на одноименном сериале, который выходил на канале ВВС с 2012 по 2014 год.
    -BDRip 720p | DVDRip | Сезон 1 | Сезон 2 | Сезон 3
    Скачать .torrent

    Скачать торрент-файл бесплатно и на максимальной скорости!

    Как скачивать? · Что такое торрент? · Рейтинг и ограничения

    !ВНИМАНИЕ!
    Сайт не распространяет и не хранит электронные версии произведений, а занимается лишь лишь предоставлением доступа к создаваемому пользователями каталогу ссылок на торрент-файлы, которые содержат только списки хеш-сумм, убедительная просьба с жалобами обращаться напрямую к пользователю. Файлы для обмена на трекере предоставлены пользователями сайта, и администрация не несёт ответственности за их содержание. Просьба не заливать файлы, защищенные авторскими правами, а также файлы нелегального содержания!


    _________________
    [Профиль] [ЛС]
    Показать сообщения:    
    Ответить на тему

    Текущее время: Сегодня, в 18:18

    Часовой пояс: GMT + 2



    Вы не можете начинать темы
    Вы не можете отвечать на сообщения
    Вы не можете редактировать свои сообщения
    Вы не можете удалять свои сообщения
    Вы не можете голосовать в опросах
    Вы не можете прикреплять файлы к сообщениям
    Вы не можете скачивать файлы