BitTorrentTracker PerecTracker.org
BitTorrentTracker PerecTracker.org
    
Регистрация  ·  Вход
 
 · 
Забыли пароль?

  • Путешествие к Рождественской звезде / Reisen til julestjernen (Нильс Гёуп / Nils Gaup) [2012, Норвегия, фэнтези, приключения, HDRip] MVO

    Ответить на тему
     
    Автор Сообщение

    rechyn

    Создавать темы 23-Дек-2015 08:03

           

    [Цитировать]

    Путешествие к Рождественской звезде / Reisen til julestjernen
    Страна: Норвегия
    Жанр: фэнтези, приключения
    Год выпуска: 2012
    Продолжительность: 01:16:49
    Перевод: Профессиональный (многоголосый закадровый)
    Cубтитры: нет
    Оригинальная аудиодорожка: нет
    Режиссер: Нильс Гёуп / Nils Gaup
    В ролях: Вильде Зейнер, Андерс Босмо Кристиансен, Агнес Киттельсен, Стиг Вернер Ме, Эйлиф Хеллум Норакер, Кристин Закариассен, Андреас Каппелен, Кнут Валле, Софи Асплин, Якоб Офтебро и другие.
    Описание: Храбрая маленькая девочка Соня отправляется в опасное путешествие, чтобы найти Рождественскую звезду, освободить королевство от заклятия и вернуть давно пропавшую принцессу. Но коварные враги всеми силами пытаются помешать ей. И тогда в покрытых снегом норвежских горах начинается настоящее волшебное приключение…
    Сэмпл: http://multi-up.com/1080482
    Качество видео: HDRip
    Формат видео: AVI
    Видео: XviD, 688х288, 2.40:1, 1 223 Kbps, 24.000 fps
    Аудио: MP3, 128 Kbps, 48.0 KHz, 2 ch

    MediaInfo

    General
    Complete name : D:\Видео\Фильмы\Путешествие к Рождественской звезде.2012.avi
    Format : AVI
    Format/Info : Audio Video Interleave
    File size : 749 MiB
    Duration : 1h 16mn
    Overall bit rate : 1 364 Kbps
    Video
    ID : 0
    Format : MPEG-4 Visual
    Format profile : Advanced Simple@L5
    Format settings, BVOP : 2
    Format settings, QPel : No
    Format settings, GMC : No warppoints
    Format settings, Matrix : Custom
    Codec ID : XVID
    Codec ID/Hint : XviD
    Duration : 1h 16mn
    Bit rate : 1 223 Kbps
    Width : 688 pixels
    Height : 288 pixels
    Display aspect ratio : 2.40:1
    Frame rate : 24.000 fps
    Color space : YUV
    Chroma subsampling : 4:2:0
    Bit depth : 8 bits
    Scan type : Progressive
    Compression mode : Lossy
    Bits/(Pixel*Frame) : 0.257
    Stream size : 672 MiB (90%)
    Writing library : XviD 65
    Audio
    ID : 1
    Format : MPEG Audio
    Format version : Version 1
    Format profile : Layer 3
    Codec ID : 55
    Codec ID/Hint : MP3
    Duration : 1h 16mn
    Source duration : 1h 16mn
    Bit rate mode : Constant
    Bit rate : 128 Kbps
    Channel(s) : 2 channels
    Sampling rate : 48.0 KHz
    Compression mode : Lossy
    Stream size : 70.3 MiB (9%)
    Alignment : Split accross interleaves
    Interleave, duration : 24 ms (0.58 video frame)

    Скриншот c названием фильма

    Скриншоты


    Скачать .torrent

    Скачать торрент-файл бесплатно и на максимальной скорости!

    Как скачивать? · Что такое торрент? · Рейтинг и ограничения

    !ВНИМАНИЕ!
    Сайт не распространяет и не хранит электронные версии произведений, а занимается лишь лишь предоставлением доступа к создаваемому пользователями каталогу ссылок на торрент-файлы, которые содержат только списки хеш-сумм, убедительная просьба с жалобами обращаться напрямую к пользователю. Файлы для обмена на трекере предоставлены пользователями сайта, и администрация не несёт ответственности за их содержание. Просьба не заливать файлы, защищенные авторскими правами, а также файлы нелегального содержания!


    _________________
    [Профиль] [ЛС]

    -746

    Создавать темы 28-Дек-2015 15:54 (спустя 5 дней)

           

    Топик был перенесен из форума Фильмы 2011-2014 в форум Новогодние релизы - Фильмы, Мультфильмы


    -sasha2006

    _________________
    Как бы ты высоко не летал, не забывай, с кем ты ползал..
     
    Показать сообщения:    
    Ответить на тему

    Текущее время: Сегодня, в 23:18

    Часовой пояс: GMT + 2



    Вы не можете начинать темы
    Вы не можете отвечать на сообщения
    Вы не можете редактировать свои сообщения
    Вы не можете удалять свои сообщения
    Вы не можете голосовать в опросах
    Вы не можете прикреплять файлы к сообщениям
    Вы не можете скачивать файлы