Register  ·  Log in
Forgot password?

  • Путешествие к Рождественской звезде / Reisen til julestjernen (Нильс Гёуп / Nils Gaup) [2012, Норвегия, фэнтези, приключения, HDRip] MVO

    Reply to topic
    Author Message


    Post 23-Dec-2015 09:03



    Путешествие к Рождественской звезде / Reisen til julestjernen
    Страна: Норвегия
    Жанр: фэнтези, приключения
    Год выпуска: 2012
    Продолжительность: 01:16:49
    Перевод: Профессиональный (многоголосый закадровый)
    Cубтитры: нет
    Оригинальная аудиодорожка: нет
    Режиссер: Нильс Гёуп / Nils Gaup
    В ролях: Вильде Зейнер, Андерс Босмо Кристиансен, Агнес Киттельсен, Стиг Вернер Ме, Эйлиф Хеллум Норакер, Кристин Закариассен, Андреас Каппелен, Кнут Валле, Софи Асплин, Якоб Офтебро и другие.
    Описание: Храбрая маленькая девочка Соня отправляется в опасное путешествие, чтобы найти Рождественскую звезду, освободить королевство от заклятия и вернуть давно пропавшую принцессу. Но коварные враги всеми силами пытаются помешать ей. И тогда в покрытых снегом норвежских горах начинается настоящее волшебное приключение…
    Качество видео: HDRip
    Формат видео: AVI
    Видео: XviD, 688х288, 2.40:1, 1 223 Kbps, 24.000 fps
    Аудио: MP3, 128 Kbps, 48.0 KHz, 2 ch


    Complete name : D:\Видео\Фильмы\Путешествие к Рождественской звезде.2012.avi
    Format : AVI
    Format/Info : Audio Video Interleave
    File size : 749 MiB
    Duration : 1h 16mn
    Overall bit rate : 1 364 Kbps
    ID : 0
    Format : MPEG-4 Visual
    Format profile : Advanced Simple@L5
    Format settings, BVOP : 2
    Format settings, QPel : No
    Format settings, GMC : No warppoints
    Format settings, Matrix : Custom
    Codec ID : XVID
    Codec ID/Hint : XviD
    Duration : 1h 16mn
    Bit rate : 1 223 Kbps
    Width : 688 pixels
    Height : 288 pixels
    Display aspect ratio : 2.40:1
    Frame rate : 24.000 fps
    Color space : YUV
    Chroma subsampling : 4:2:0
    Bit depth : 8 bits
    Scan type : Progressive
    Compression mode : Lossy
    Bits/(Pixel*Frame) : 0.257
    Stream size : 672 MiB (90%)
    Writing library : XviD 65
    ID : 1
    Format : MPEG Audio
    Format version : Version 1
    Format profile : Layer 3
    Codec ID : 55
    Codec ID/Hint : MP3
    Duration : 1h 16mn
    Source duration : 1h 16mn
    Bit rate mode : Constant
    Bit rate : 128 Kbps
    Channel(s) : 2 channels
    Sampling rate : 48.0 KHz
    Compression mode : Lossy
    Stream size : 70.3 MiB (9%)
    Alignment : Split accross interleaves
    Interleave, duration : 24 ms (0.58 video frame)

    Скриншот c названием фильма


    Download .torrent

    Download free and at maximum speed!

    How to Download? · What is a torrent? · Ratings and Limitations

    The site does not extend and does not store electronic(digital) versions of products, and only gives access to a reference catalogue created by users on torrent-files which contain only lists of the hash-sums, the earnest entreaty, with complaints(abuse) to access directly to the user. Files for an exchange on tracker are given by users of a site, and the administration does not bear the responsibility for their maintenance. The request to not fill in the files protected by copyrights, and also files of the illegal maintenance!

    [Profile] [PM]


    Post 28-Dec-2015 16:54 (after 5 days)


    Топик был перенесен из форума Фильмы 2011-2014 в форум Новогодние релизы - Фильмы, Мультфильмы


    Как бы ты высоко не летал, не забывай, с кем ты ползал..
    Display posts from previous:    
    Reply to topic

    The time now is: Today 10:12

    All times are GMT + 3 Hours

    You cannot post new topics in this forum
    You cannot reply to topics in this forum
    You cannot edit your posts in this forum
    You cannot delete your posts in this forum
    You cannot vote in polls in this forum
    You cannot attach files in this forum
    You cannot download files in this forum