BitTorrentTracker PerecTracker.org
BitTorrentTracker PerecTracker.org
    
Регистрация  ·  Вход
 
 · 
Забыли пароль?

  • В ожидании настоящей любви / Верный путь к любви / True Love Ways (Матьё Сейлер / Mathieu Seiler) [2014, Германия, драма, триллер, HDRip] DVO (Parovozik)

    Ответить на тему
     
    Автор Сообщение

    rechyn

    Создавать темы 23-Дек-2015 08:03

           

    [Цитировать]

    В ожидании настоящей любви / Верный путь к любви / True Love WaysСтрана:
    Жанр: драма, триллер
    Год выпуска: 2014
    Продолжительность: 01:46:23
    Перевод: Любительский (двухголосый закадровый) - «Parovozik»
    Cубтитры: нет
    Режиссер: Матьё Сейлер / Mathieu Seiler
    В ролях: Анна Хаусбург, Давид К. Буннерс, Кай Мюллер, Микаэль Грайлинг, Эксел Хартвиг, Бит Марти, Маргарита Руль, Марсель Шнайдер, Кристиан Вебер.
    Описание: После повторяющегося сна, Северин решает, что она должна уйти от своего парня Тома на пару дней. Том заключает сделку с человеком, они встречаются в баре: Северин будет похищена, Том спасает ее из лап похитителей, и станет ее спасителем. Однако, Том не знает, что сделает его новый друг, он имеет другой план в отношении Северин. Столкнувшись с жестокими преступниками, и ее собственными первобытными страхами, Северин втягивается в жестокую игру несбывшиеся желания и поиска настоящей любви.

    Доп. информация:
    Исходник - немецкоязычный BDRip 720p с
    Русский текст читали Марина Доможирова и Валерий Смекалов
    HDRip и синхронизация звука - Arle-kino

    Качество видео: HDRip
    Формат видео: AVI
    Видео: 656x352 (1.86:1), 23.976 fps, XviD build 50 ~844 kbps avg, 0.15 bit/pixel
    Аудио: 48 kHz, MPEG Layer 3, 2 ch, ~128.00 kbps avg

    MediaInfo

    General
    Complete name : D:\Public\True Love Ways (2014) HDRip (747 Mb) Rus.avi
    Format : AVI
    Format/Info : Audio Video Interleave
    File size : 747 MiB
    Duration : 1h 46mn
    Overall bit rate : 982 Kbps
    Writing application : VirtualDubMod 1.5.10.2 (build 2540/release)
    Writing library : VirtualDubMod build 2540/release
    Video
    ID : 0
    Format : MPEG-4 Visual
    Format profile : Advanced Simple@L5
    Format settings, BVOP : 1
    Format settings, QPel : No
    Format settings, GMC : No warppoints
    Format settings, Matrix : Default (MPEG)
    Codec ID : XVID
    Codec ID/Hint : XviD
    Duration : 1h 46mn
    Bit rate : 845 Kbps
    Width : 656 pixels
    Height : 352 pixels
    Display aspect ratio : 1.864
    Frame rate : 23.976 fps
    Color space : YUV
    Chroma subsampling : 4:2:0
    Bit depth : 8 bits
    Scan type : Progressive
    Compression mode : Lossy
    Bits/(Pixel*Frame) : 0.153
    Stream size : 643 MiB (86%)
    Writing library : XviD 1.2.1 (UTC 2008-12-04)
    Audio
    ID : 1
    Format : MPEG Audio
    Format version : Version 1
    Format profile : Layer 3
    Codec ID : 55
    Codec ID/Hint : MP3
    Duration : 1h 46mn
    Bit rate mode : Constant
    Bit rate : 128 Kbps
    Channel(s) : 2 channels
    Sampling rate : 48.0 KHz
    Compression mode : Lossy
    Stream size : 97.4 MiB (13%)
    Alignment : Aligned on interleaves
    Interleave, duration : 42 ms (1.00 video frame)
    Interleave, preload duration : 504 ms
    Writing library : LAME3.98r
    Encoding settings : -m s -V 4 -q 2 -lowpass 17 -b 128

    Скриншот c названием фильма

    Скриншоты

    Скачать .torrent

    Скачать торрент-файл бесплатно и на максимальной скорости!

    Как скачивать? · Что такое торрент? · Рейтинг и ограничения

    !ВНИМАНИЕ!
    Сайт не распространяет и не хранит электронные версии произведений, а занимается лишь лишь предоставлением доступа к создаваемому пользователями каталогу ссылок на торрент-файлы, которые содержат только списки хеш-сумм, убедительная просьба с жалобами обращаться напрямую к пользователю. Файлы для обмена на трекере предоставлены пользователями сайта, и администрация не несёт ответственности за их содержание. Просьба не заливать файлы, защищенные авторскими правами, а также файлы нелегального содержания!


    _________________
    [Профиль] [ЛС]
    Показать сообщения:    
    Ответить на тему

    Текущее время: Сегодня, в 03:19

    Часовой пояс: GMT + 2



    Вы не можете начинать темы
    Вы не можете отвечать на сообщения
    Вы не можете редактировать свои сообщения
    Вы не можете удалять свои сообщения
    Вы не можете голосовать в опросах
    Вы не можете прикреплять файлы к сообщениям
    Вы не можете скачивать файлы