BitTorrentTracker PerecTracker.org
BitTorrentTracker PerecTracker.org
    
Регистрация  ·  Вход
 
 · 
Забыли пароль?

  • Большие глаза / Big Eyes (Тим Бёртон / Tim Burton) [2014, США, Канада, драма, биография, BDRip-AVC] Dub (iTunes) + Sub Eng + Original Eng

    Ответить на тему
     
    Автор Сообщение

    rechyn

    Создавать темы 23-Дек-2015 08:03

           

    [Цитировать]

    Большие глаза
    Big Eyes
    «She created it. He sold it. And they bought it»
    -Страна: США, Канада
    Жанр: драма, биография
    Год выпуска: 2014
    Продолжительность: 01:45:44
    Перевод: Профессиональный (дублированный) iTunes
    Cубтитры: английские
    Оригинальная аудиодорожка: английский-Режиссер
    Тим Бёртон / Tim Burton
    В ролях:
    Эми Адамс | Amy Adams
    Кристоф Вальц | Christoph Waltz
    Кристен Риттер, Джейсон Шварцман, Дэнни Хьюстон, Теренс Стэмп, Джон Полито, Элизабетта Фантоне, Джеймс Саито, Гуидо Фурлани-ОписаниеЯркая и цветущая Америка 50-х. В сочных красках Сан-Франциско зарождается то, что разрушит традиционный взгляд на искусство и бесповоротно изменит то, как выглядит наша жизнь. Появившийся из ниоткуда художник Уолтер Кин придумал поп-арт. Его необычные картины, изображающие трогательных детей с огромными глазами, произвели настоящий фурор и буквально заполонили весь мир. Их печатают на календарях, открытках, домохозяйки щеголяют в фартуках с их изображением. Уолтер становится королем современного искусства, одним из самых известных арт-деятелей планеты.
    Но на пике славы художника его скромная супруга Маргарет вдруг утверждает, что Уолтер — мошенник, и именно она — автор знаменитых картин. Неожиданно открываются шокирующие подробности жизни четы Кин. Весь мир замер в ожидании ответа на вопрос: кто же все-таки тот гений, чьи смелые и оригинальные картины украшают теперь каждую гостиную от Парижа до Аляски?
    -
    Золотой глобус, 2015 год
    Победитель (1):
    Лучшая женская роль (комедия или мюзикл) ( Эми Адамс )

    Сэмпл

    IMDb: 7.00 (44 947)
    Качество видео: BDRip-AVC BIG_EYES_REMUX_HDCLUB
    Формат видео: MKV
    Видео: AVC 3615 Kbps 1136 x 640 (1.775) 23.976 fps
    Аудио: AC-3 384 Kbps 6 channels, 48.0 KHz Rus iTunes
    Аудио 2: AC-3 448 Kbps 6 channels, 48.0 KHz Eng
    Формат субтитров: softsub (SRT)
    MediaInfo | Log

    Log

    x264 [info]: frame I:1318 Avg QP:14.59 size:117661
    x264 [info]: frame P:29699 Avg QP:16.42 size: 42434
    x264 [info]: frame B:121095 Avg QP:18.35 size: 12560
    x264 [info]: consecutive B-frames: 1.5% 1.2% 2.8% 20.9% 18.8% 36.0% 7.2% 8.0% 1.1% 0.4% 0.3% 1.0% 0.7%
    x264 [info]: mb I I16..4: 12.5% 68.6% 19.0%
    x264 [info]: mb P I16..4: 0.4% 10.9% 1.0% P16..4: 26.6% 31.8% 16.0% 2.9% 0.3% skip:10.1%
    x264 [info]: mb B I16..4: 0.0% 0.9% 0.1% B16..8: 30.5% 19.6% 4.8% direct: 5.3% skip:38.9% L0:42.7% L1:43.9% BI:13.4%
    x264 [info]: 8x8 transform intra:84.1% inter:51.0%
    x264 [info]: direct mvs spatial:99.9% temporal:0.1%
    x264 [info]: coded y,uvDC,uvAC intra: 94.2% 89.9% 81.0% inter: 26.0% 17.4% 5.9%
    x264 [info]: i16 v,h,dc,p: 33% 8% 18% 41%
    x264 [info]: i8 v,h,dc,ddl,ddr,vr,hd,vl,hu: 10% 8% 14% 9% 12% 12% 11% 11% 12%
    x264 [info]: i4 v,h,dc,ddl,ddr,vr,hd,vl,hu: 13% 8% 8% 8% 14% 14% 12% 11% 11%
    x264 [info]: i8c dc,h,v,p: 50% 18% 17% 15%
    x264 [info]: Weighted P-Frames: Y:3.1% UV:1.3%
    x264 [info]: ref P L0: 42.1% 10.4% 18.9% 6.3% 6.2% 3.9% 4.2% 2.2% 2.3% 1.6% 1.9% 0.1% 0.0%
    x264 [info]: ref B L0: 70.9% 12.2% 5.6% 3.1% 2.2% 2.1% 1.6% 1.3% 0.6% 0.3%
    x264 [info]: ref B L1: 93.2% 6.8%
    x264 [info]: kb/s:3702.61
    x264 [total]: encoded 152112 frames, 7.81 fps, 3702.61 kb/s, duration 5:24:34.72
    Format : Matroska
    Format version : Version 4 / Version 2
    File size : 3.35 GiB
    Duration : 1h 45mn
    Overall bit rate : 4 537 Kbps
    Encoded date : UTC 2015-12-22 21:26:11
    Writing application : mkvmerge v6.7.0 ('Back to the Ground') 32bit built on Jan 8 2014 15:03:17
    Writing library : libebml v1.3.0 + libmatroska v1.4.1
    Video
    ID : 1
    Format : AVC
    Format/Info : Advanced Video Codec
    Format profile : High@L4.1
    Format settings, CABAC : Yes
    Format settings, ReFrames : 11 frames
    Codec ID : V_MPEG4/ISO/AVC
    Duration : 1h 45mn
    Bit rate : 3 615 Kbps
    Width : 1 136 pixels
    Height : 640 pixels
    Display aspect ratio : 16:9
    Frame rate mode : Constant
    Frame rate : 23.976 fps
    Color space : YUV
    Chroma subsampling : 4:2:0
    Bit depth : 8 bits
    Scan type : Progressive
    Bits/(Pixel*Frame) : 0.207
    Stream size : 2.67 GiB (80%)
    Title : Big Eyes (2014) [perectracker.org]
    Writing library : x264 core 148 r2579kMod 73ae2d1
    Encoding settings : cabac=1 / ref=11 / deblock=1:-2:-2 / analyse=0x3:0x133 / me=umh / subme=11 / psy=1 / fade_compensate=0.00 / psy_rd=1.00:0.05 / mixed_ref=1 / me_range=48 / chroma_me=1 / trellis=2 / 8x8dct=1 / cqm=0 / deadzone=21,11 / fast_pskip=0 / chroma_qp_offset=-3 / threads=12 / lookahead_threads=3 / sliced_threads=0 / nr=0 / decimate=1 / interlaced=0 / bluray_compat=0 / constrained_intra=0 / fgo=0 / bframes=12 / b_pyramid=2 / b_adapt=2 / b_bias=0 / direct=3 / weightb=1 / open_gop=0 / weightp=2 / keyint=250 / keyint_min=23 / scenecut=40 / intra_refresh=0 / rc_lookahead=60 / rc=crf / mbtree=0 / crf=17.3000 / qcomp=0.60 / qpmin=0 / qpmax=69 / qpstep=4 / vbv_maxrate=50000 / vbv_bufsize=62500 / crf_max=0.0 / nal_hrd=none / filler=0 / ip_ratio=1.40 / pb_ratio=1.30 / aq=3:0.90
    Language : English
    Default : Yes
    Forced : No
    Audio #1
    ID : 2
    Format : AC-3
    Format/Info : Audio Coding 3
    Mode extension : CM (complete main)
    Format settings, Endianness : Big
    Codec ID : A_AC3
    Duration : 1h 45mn
    Bit rate mode : Constant
    Bit rate : 384 Kbps
    Channel(s) : 6 channels
    Channel positions : Front: L C R, Side: L R, LFE
    Sampling rate : 48.0 KHz
    Compression mode : Lossy
    Stream size : 290 MiB (8%)
    Title : DUB [iTunes]
    Language : Russian
    Default : Yes
    Forced : No
    Audio #2
    ID : 3
    Format : AC-3
    Format/Info : Audio Coding 3
    Mode extension : CM (complete main)
    Format settings, Endianness : Big
    Codec ID : A_AC3
    Duration : 1h 45mn
    Bit rate mode : Constant
    Bit rate : 448 Kbps
    Channel(s) : 6 channels
    Channel positions : Front: L C R, Side: L R, LFE
    Sampling rate : 48.0 KHz
    Compression mode : Lossy
    Stream size : 339 MiB (10%)
    Title : Original
    Language : English
    Default : No
    Forced : No
    Text #1
    ID : 4
    Format : UTF-8
    Codec ID : S_TEXT/UTF8
    Codec ID/Info : UTF-8 Plain Text
    Title : Full
    Language : English
    Default : No
    Forced : No
    Text #2
    ID : 5
    Format : UTF-8
    Codec ID : S_TEXT/UTF8
    Codec ID/Info : UTF-8 Plain Text
    Title : SDH
    Language : English
    Default : No
    Forced : No
    Menu
    00:00:00.000 : en:00:00:00.000
    00:06:44.444 : en:00:06:44.444
    00:14:34.539 : en:00:14:34.539
    00:21:45.721 : en:00:21:45.721
    00:27:12.380 : en:00:27:12.380
    00:35:10.358 : en:00:35:10.358
    00:40:54.409 : en:00:40:54.409
    00:46:49.639 : en:00:46:49.639
    00:52:36.777 : en:00:52:36.777
    00:58:04.646 : en:00:58:04.646
    01:03:45.822 : en:01:03:45.822
    01:10:49.744 : en:01:10:49.744
    01:17:40.322 : en:01:17:40.322
    01:26:03.533 : en:01:26:03.533
    01:32:05.728 : en:01:32:05.728
    01:39:00.643 : en:01:39:00.643

    Скриншоты




    Скачать .torrent

    Скачать торрент-файл бесплатно и на максимальной скорости!

    Как скачивать? · Что такое торрент? · Рейтинг и ограничения

    !ВНИМАНИЕ!
    Сайт не распространяет и не хранит электронные версии произведений, а занимается лишь лишь предоставлением доступа к создаваемому пользователями каталогу ссылок на торрент-файлы, которые содержат только списки хеш-сумм, убедительная просьба с жалобами обращаться напрямую к пользователю. Файлы для обмена на трекере предоставлены пользователями сайта, и администрация не несёт ответственности за их содержание. Просьба не заливать файлы, защищенные авторскими правами, а также файлы нелегального содержания!


    _________________
    [Профиль] [ЛС]
    Показать сообщения:    
    Ответить на тему

    Текущее время: Сегодня, в 10:11

    Часовой пояс: GMT + 2



    Вы не можете начинать темы
    Вы не можете отвечать на сообщения
    Вы не можете редактировать свои сообщения
    Вы не можете удалять свои сообщения
    Вы не можете голосовать в опросах
    Вы не можете прикреплять файлы к сообщениям
    Вы не можете скачивать файлы