BitTorrentTracker PerecTracker.org
BitTorrentTracker PerecTracker.org
    
Регистрация  ·  Вход
 
 · 
Забыли пароль?

  • Чингачгук – Большой Змей / Chingachgook, die grosse Schlange (Рихард Грошопп) [1967, Германия (ГДР), драма, мелодрама, приключения, вестерн, BDRip HD (720p), SD (480p)] DUB, Original + SUB (eng)

    Ответить на тему
     
    Автор Сообщение

    Flirldrerve

    Создавать темы 23-Дек-2015 04:02

           

    [Цитировать]

    Чингачгук – Большой Змей / Chingachgook, die grosse Schlange
    7.082 / 10
    -Год выпуска: 1967
    Страна: Германия (ГДР)
    Жанр: драма, мелодрама, приключения, вестерн
    Продолжительность: 92 мин.
    Перевод: Профессиональный дублированный перевод
    Оригинальная аудиодорожка: Есть
    Cубтитры: Английские полные
    Режиссёр: Рихард Грошопп
    Сценарий: Вольфганг Эбелинг, Рихард Грошопп, Эгон Гюнтер
    Оператор: Отто Ханиш
    Композитор: Вильгельм Нееф
    Художник: Пауль Леманн, Гюнтер Шмидт
    Монтаж: Хельга Краузе
    В ролях: Гойко Митич, Рольф Рёмер, Хельмут Шрайбер, Юрген Фрорип, Лило Гран, Андреа Драхота, Йоханнес Книттель, Адольф Петер Хоффманн, Хайнц Клевенов мл., Милан Яблонски
    Роли дублировали: Владимир Дружников, Виктор Рождественский, Яков Беленький, Всеволод Ларионов, Серафима Холина
    Мировая премьера: 25 июня 1967
    Описание: 1740 год. Английские войска пытаются отбить у французов их североамериканские колонии и втягивают в эту войну индейцев. В руки гуронов, которых французы натравили на делаваров, попадает Ватава, дочь вождя, обещанная Чингачгуку. Он собирается освободить ее с помощью своего друга Зверобоя. Неподалеку от лагеря гуронов они сталкиваются с охотниками за скальпами. Чингачгук попадает в плен к гуронам. Он пытается убедить их, что индейцам нет дела до войны между белыми. Но это ему не удается. Между тем один из охотников приводит английских солдат, которые наголову разбивают гуронов. Теперь их тяжело раненный вождь понимает, что Чингачгук был прав. Сумеют ли Чингачгук, Ватава и Зверобой выжить в этой резне?..-Качество исходника: Blu-Ray 1080p (HDClub)
    Качество: BDRip
    Тип: 480p 720p
    Контейнер: m4v
    Видео: 640x362 анаморф 852x362 at 25.000 fps, MPEG-4 AVC, ~1800 kbps avg
    Видео: 1280x544 at 25.000 fps, MPEG-4 AVC, ~7000 kbps avg
    Аудио#1: Russian: 48 kHz, ААС, 2/0 (L,R), ~128.00 / 160.00 kbps avg |Дубляж + вставки Ю. Сербина|
    Аудио#2: German: 48 kHz, ААС, 2/0 (L,R), ~128.00 / 160.00 kbps avg
    Субтитры №1: English: |Полные|-

    Знаете ли Вы, что...

    • Занимает 73-е место по посещаемости среди зарубежных фильмов в советском кинопрокате.

    -

    iTunes Meta Tags for country ru

    Sort Name: Chingachgook, die grosse Schlange
    XID: Apple:vendor_id:1967-84340
    contentID: 84340
    Screenwriters: Вольфганг Эбелинг, Рихард Грошопп, Эгон Гюнтер
    Director: Рихард Грошопп
    Cast: Гойко Митич, Рольф Рёмер, Хельмут Шрайбер, Юрген Фрорип, Лило Гран, Андреа Драхота, Йоханнес Книттель, Адольф Петер Хоффманн, Хайнц Клевенов мл., Милан Яблонски
    Long Description: 1740 год. Английские войска пытаются отбить у французов их североамериканские колонии и втягивают в эту войну индейцев. В руки гуронов, которых французы натравили на делаваров, попадает Ватава, дочь вождя, обещанная Чингачгуку. Он собирается освободить ее с помощью своего друга Зверобоя. Неподалеку от лагеря гуронов они сталкиваются с охотниками за скальпами. Чингачгук попадает в плен к гуронам. Он пытается убедить их, что индейцам нет дела до войны между белыми. Но это ему не удается. Между тем один из охотников приводит английских солдат, которые наголову разбивают гуронов. Теперь их тяжело раненный вождь понимает, что Чингачгук был прав. Сумеют ли Чингачгук, Ватава и Зверобой выжить в этой резне?..
    Description: 1740 год. Английские войска пытаются отбить у французов их североамериканские колонии и втягивают в эту войну индейцев. В руки гуронов, которых французы натравили на делаваров, попадает Ватава, дочь вождя, обещанная Чингачгуку. Он собирается освободить ее с помощью своего друга Зверобоя...
    Release Date: 1967-06-25T08:00:00Z
    Genre: Western
    Artist: Richard Groschopp
    Name: Chingachgook, die grosse Schlange

    MediaInfo 480p Release

    General
    Complete name : Chingachgook, die grosse Schlange.m4v
    Format : MPEG-4
    Codec ID : M4V  (M4V /M4A /mp42/isom)
    File size : 1.25 GiB
    Duration : 1h 27mn
    Overall bit rate mode : Variable
    Overall bit rate : 2 043 Kbps
    Movie name : Chingachgook, die grosse Schlange
    Performer : Richard Groschopp
    Director : Рихард Грошопп
    Actor : Гойко Митич / Рольф Рёмер / Хельмут Шрайбер / Юрген Фрорип / Лило Гран / Андреа Драхота / Йоханнес Книттель / Адольф Петер Хоффманн / Хайнц Клевенов мл. / Милан Яблонски
    Screenplay by : Вольфганг Эбелинг / Рихард Грошопп / Эгон Гюнтер
    Genre : Western
    ContentType : Short Film
    Description : 1740 год. Английские войска пытаются отбить у французов их североамериканские колонии и втягивают в эту войну индейцев. В руки гуронов, которых французы натравили на делаваров, попадает Ватава, дочь вождя, обещанная Чингачгуку. Он собирается освободить ее с помощью своего друга Зверобоя...
    Recorded date : UTC 1967-06-25 08:00:00
    Encoded date : UTC 2015-12-04 09:20:11
    Tagged date : UTC 2015-12-22 12:50:22
    Cover : Yes
    Rating : None
    Title/Sort : Chingachgook, die grosse Schlange
    LongDescription : 1740 год. Английские войска пытаются отбить у французов их североамериканские колонии и втягивают в эту войну индейцев. В руки гуронов, которых французы натравили на делаваров, попадает Ватава, дочь вождя, обещанная Чингачгуку. Он собирается освободить ее с помощью своего друга Зверобоя. Неподалеку от лагеря гуронов они сталкиваются с охотниками за скальпами. Чингачгук попадает в плен к гуронам. Он пытается убедить их, что индейцам нет дела до войны между белыми. Но это ему не удается. Между тем один из охотников приводит английских солдат, которые наголову разбивают гуронов. Теперь их тяжело раненный вождь понимает, что Чингачгук был прав. Сумеют ли Чингачгук, Ватава и Зверобой выжить в этой резне?..
    AppleStoreCatalogID : 84340
    Vendor : Apple:vendor_id:1967-84340
    Video #1
    ID : 1
    Format : AVC
    Format/Info : Advanced Video Codec
    Format profile : Baseline@L3
    Format settings, CABAC : No
    Format settings, ReFrames : 2 frames
    Codec ID : avc1
    Codec ID/Info : Advanced Video Coding
    Duration : 1h 27mn
    Bit rate : 1 800 Kbps
    Width : 640 pixels
    Height : 362 pixels
    Display aspect ratio : 2.35:1
    Original display aspect ratio : 2.2:1
    Frame rate mode : Constant
    Frame rate : 25.000 fps
    Color space : YUV
    Chroma subsampling : 4:2:0
    Bit depth : 8 bits
    Scan type : Progressive
    Bits/(Pixel*Frame) : 0.311
    Stream size : 1.10 GiB (88%)
    Title : Main Program
    Writing library : x264 core 130 r2273 b3065e6
    Encoding settings : cabac=0 / ref=2 / deblock=1:0:0 / analyse=0x1:0x111 / me=umh / subme=6 / psy=1 / psy_rd=1.00:0.00 / mixed_ref=1 / me_range=16 / chroma_me=1 / trellis=0 / 8x8dct=0 / cqm=0 / deadzone=21,11 / fast_pskip=1 / chroma_qp_offset=-2 / threads=18 / lookahead_threads=2 / sliced_threads=0 / nr=0 / decimate=1 / interlaced=0 / bluray_compat=0 / constrained_intra=0 / bframes=0 / weightp=0 / keyint=250 / keyint_min=25 / scenecut=40 / intra_refresh=0 / rc_lookahead=40 / rc=2pass / mbtree=1 / bitrate=1800 / ratetol=1.0 / qcomp=0.60 / qpmin=0 / qpmax=69 / qpstep=4 / cplxblur=20.0 / qblur=0.5 / vbv_maxrate=5000 / vbv_bufsize=5000 / nal_hrd=none / ip_ratio=1.40 / aq=1:1.00
    Language : German
    Encoded date : UTC 2015-12-04 09:20:11
    Tagged date : UTC 2015-12-04 09:20:24
    Color range : Limited
    Color primaries : BT.709
    Transfer characteristics : BT.709
    Matrix coefficients : BT.709
    Menus : 5,6
    Video #2
    ID : 6
    Format : JPEG
    Codec ID : jpeg
    Duration : 1h 27mn
    Bit rate mode : Variable
    Bit rate : 779 bps
    Width : 640 pixels
    Height : 289 pixels
    Display aspect ratio : 2.2:1
    Frame rate mode : Variable
    Frame rate : 0.002 fps
    Minimum frame rate : 0.001 fps
    Maximum frame rate : 0.004 fps
    Color space : YUV
    Chroma subsampling : 4:2:0
    Bit depth : 8 bits
    Compression mode : Lossy
    Bits/(Pixel*Frame) : 2.106
    Stream size : 380 KiB (0%)
    Title : Chapter Images
    Language : German
    Default : No
    Encoded date : UTC 2015-12-10 13:20:51
    Tagged date : UTC 2015-12-10 13:20:51
    Menu For : 1
    Audio #1
    ID : 2
    Format : AAC
    Format/Info : Advanced Audio Codec
    Format profile : LC
    Codec ID : 40
    Duration : 1h 27mn
    Bit rate mode : Variable
    Bit rate : 132 Kbps
    Maximum bit rate : 239 Kbps
    Channel(s) : 2 channels
    Channel positions : Front: L R
    Sampling rate : 48.0 KHz
    Frame rate : 46.875 fps (1024 spf)
    Compression mode : Lossy
    Stream size : 83.0 MiB (6%)
    Title : Russian DUB Stereo
    Language : Russian
    Default : Yes
    Alternate group : 1
    Encoded date : UTC 2015-12-04 09:20:11
    Tagged date : UTC 2015-12-04 09:20:16
    Menus : 5
    Audio #2
    ID : 3
    Format : AAC
    Format/Info : Advanced Audio Codec
    Format profile : LC
    Codec ID : 40
    Duration : 1h 27mn
    Bit rate mode : Variable
    Bit rate : 108 Kbps
    Maximum bit rate : 118 Kbps
    Channel(s) : 2 channels
    Channel positions : Front: L R
    Sampling rate : 48.0 KHz
    Frame rate : 46.875 fps (1024 spf)
    Compression mode : Lossy
    Stream size : 67.3 MiB (5%)
    Title : German Stereo
    Language : German
    Default : No
    Alternate group : 1
    Encoded date : UTC 2015-12-04 09:20:11
    Tagged date : UTC 2015-12-04 09:20:16
    Text
    ID : 4
    Format : Timed Text
    Muxing mode : sbtl
    Codec ID : tx3g
    Duration : 1h 27mn
    Bit rate mode : Variable
    Bit rate : 32 bps
    Stream size : 20.2 KiB (0%)
    Title : English Subtitle
    Language : English
    Default : Yes
    Forced : No
    Alternate group : 2
    Encoded date : UTC 2015-12-10 13:20:14
    Tagged date : UTC 2015-12-10 13:20:14
    Menu #1
    00:00:00.000 : 1
    00:10:02.280 : 2
    00:19:42.680 : 3
    00:28:29.960 : 4
    00:40:06.800 : 5
    00:53:31.680 : 6
    01:07:38.800 : 7
    01:23:16.160 : 8
    Menu #2
    ID : 5
    Codec ID : text
    Duration : 1h 27mn
    Title : Chapter Titles
    Language : English
    Encoded date : UTC 2015-12-10 13:20:50
    Tagged date : UTC 2015-12-10 13:20:50
    Bit rate mode : CBR
    Menu For : 2,1
    00:00:00.000 : 1
    00:10:02.280 : 2
    00:19:42.680 : 3
    00:28:29.960 : 4
    00:40:06.800 : 5
    00:53:31.680 : 6
    01:07:38.800 : 7
    01:23:16.160 : 8

    MediaInfo 720p Release

    General
    Complete name : Chingachgook, die grosse Schlange (HD).m4v
    Format : MPEG-4
    Codec ID : M4V  (M4V /M4A /mp42/isom)
    File size : 4.45 GiB
    Duration : 1h 27mn
    Overall bit rate mode : Variable
    Overall bit rate : 7 278 Kbps
    Movie name : Chingachgook, die grosse Schlange
    Performer : Richard Groschopp
    Director : Рихард Грошопп
    Actor : Гойко Митич / Рольф Рёмер / Хельмут Шрайбер / Юрген Фрорип / Лило Гран / Андреа Драхота / Йоханнес Книттель / Адольф Петер Хоффманн / Хайнц Клевенов мл. / Милан Яблонски
    Screenplay by : Вольфганг Эбелинг / Рихард Грошопп / Эгон Гюнтер
    Genre : Western
    ContentType : Short Film
    Description : 1740 год. Английские войска пытаются отбить у французов их североамериканские колонии и втягивают в эту войну индейцев. В руки гуронов, которых французы натравили на делаваров, попадает Ватава, дочь вождя, обещанная Чингачгуку. Он собирается освободить ее с помощью своего друга Зверобоя...
    Recorded date : UTC 1967-06-25 08:00:00
    Encoded date : UTC 2015-12-11 06:45:46
    Tagged date : UTC 2015-12-11 06:49:54
    Cover : Yes
    Rating : None
    Title/Sort : Chingachgook, die grosse Schlange
    LongDescription : 1740 год. Английские войска пытаются отбить у французов их североамериканские колонии и втягивают в эту войну индейцев. В руки гуронов, которых французы натравили на делаваров, попадает Ватава, дочь вождя, обещанная Чингачгуку. Он собирается освободить ее с помощью своего друга Зверобоя. Неподалеку от лагеря гуронов они сталкиваются с охотниками за скальпами. Чингачгук попадает в плен к гуронам. Он пытается убедить их, что индейцам нет дела до войны между белыми. Но это ему не удается. Между тем один из охотников приводит английских солдат, которые наголову разбивают гуронов. Теперь их тяжело раненный вождь понимает, что Чингачгук был прав. Сумеют ли Чингачгук, Ватава и Зверобой выжить в этой резне?..
    HDVideo : Yes
    AppleStoreCatalogID : 84340
    Vendor : Apple:vendor_id:1967-84340
    Video #1
    ID : 1
    Format : AVC
    Format/Info : Advanced Video Codec
    Format profile : High@L3.1
    Format settings, CABAC : No
    Format settings, ReFrames : 3 frames
    Codec ID : avc1
    Codec ID/Info : Advanced Video Coding
    Duration : 1h 27mn
    Source duration : 1h 27mn
    Nominal bit rate : 7 000 Kbps
    Width : 1 280 pixels
    Height : 544 pixels
    Display aspect ratio : 2.35:1
    Frame rate mode : Constant
    Frame rate : 25.000 fps
    Color space : YUV
    Chroma subsampling : 4:2:0
    Bit depth : 8 bits
    Scan type : Progressive
    Bits/(Pixel*Frame) : 0.402
    Source stream size : 4.26 GiB (96%)
    Title : Main Program
    Writing library : x264 core 130 r2273 b3065e6
    Encoding settings : cabac=0 / ref=3 / deblock=1:-3:-2 / analyse=0x3:0x113 / me=umh / subme=9 / psy=1 / psy_rd=1.00:0.25 / mixed_ref=1 / me_range=32 / chroma_me=1 / trellis=0 / 8x8dct=1 / cqm=0 / deadzone=21,11 / fast_pskip=0 / chroma_qp_offset=-2 / threads=18 / lookahead_threads=1 / sliced_threads=0 / nr=0 / decimate=0 / interlaced=0 / bluray_compat=0 / constrained_intra=0 / bframes=3 / b_pyramid=0 / b_adapt=2 / b_bias=0 / direct=1 / weightb=0 / open_gop=0 / weightp=0 / keyint=250 / keyint_min=25 / scenecut=40 / intra_refresh=0 / rc_lookahead=40 / rc=2pass / mbtree=1 / bitrate=7000 / ratetol=1.0 / qcomp=0.60 / qpmin=0 / qpmax=69 / qpstep=4 / cplxblur=20.0 / qblur=0.5 / vbv_maxrate=9500 / vbv_bufsize=9500 / nal_hrd=none / ip_ratio=1.40 / aq=1:0.80
    Language : German
    Encoded date : UTC 2015-12-11 06:45:47
    Tagged date : UTC 2015-12-11 06:46:58
    Color range : Limited
    Color primaries : BT.709
    Transfer characteristics : BT.709
    Matrix coefficients : BT.709
    Menus : 5,6
    Video #2
    ID : 6
    Format : JPEG
    Codec ID : jpeg
    Duration : 1h 27mn
    Bit rate mode : Variable
    Bit rate : 771 bps
    Width : 640 pixels
    Height : 272 pixels
    Display aspect ratio : 2.35:1
    Frame rate mode : Variable
    Frame rate : 0.002 fps
    Minimum frame rate : 0.001 fps
    Maximum frame rate : 0.004 fps
    Color space : YUV
    Chroma subsampling : 4:2:0
    Bit depth : 8 bits
    Compression mode : Lossy
    Bits/(Pixel*Frame) : 2.214
    Stream size : 377 KiB (0%)
    Title : Chapter Images
    Language : German
    Default : No
    Encoded date : UTC 2015-12-11 06:47:00
    Tagged date : UTC 2015-12-11 06:47:00
    Menu For : 1
    Audio #1
    ID : 2
    Format : AAC
    Format/Info : Advanced Audio Codec
    Format profile : LC
    Codec ID : 40
    Duration : 1h 27mn
    Bit rate mode : Variable
    Bit rate : 165 Kbps
    Maximum bit rate : 290 Kbps
    Channel(s) : 2 channels
    Channel positions : Front: L R
    Sampling rate : 48.0 KHz
    Frame rate : 46.875 fps (1024 spf)
    Compression mode : Lossy
    Stream size : 104 MiB (2%)
    Title : Russian DUB Stereo
    Language : Russian
    Default : Yes
    Alternate group : 1
    Encoded date : UTC 2015-12-11 06:45:46
    Tagged date : UTC 2015-12-11 06:46:04
    Menus : 5
    Audio #2
    ID : 3
    Format : AAC
    Format/Info : Advanced Audio Codec
    Format profile : LC
    Codec ID : 40
    Duration : 1h 27mn
    Bit rate mode : Variable
    Bit rate : 132 Kbps
    Maximum bit rate : 144 Kbps
    Channel(s) : 2 channels
    Channel positions : Front: L R
    Sampling rate : 48.0 KHz
    Frame rate : 46.875 fps (1024 spf)
    Compression mode : Lossy
    Stream size : 82.3 MiB (2%)
    Title : German Stereo
    Language : German
    Default : No
    Alternate group : 1
    Encoded date : UTC 2015-12-11 06:45:47
    Tagged date : UTC 2015-12-11 06:46:04
    Text
    ID : 4
    Format : Timed Text
    Muxing mode : sbtl
    Codec ID : tx3g
    Duration : 1h 27mn
    Bit rate mode : Variable
    Bit rate : 32 bps
    Stream size : 20.2 KiB (0%)
    Title : English Subtitle
    Language : English
    Default : Yes
    Forced : No
    Alternate group : 2
    Encoded date : UTC 2015-12-11 06:45:47
    Tagged date : UTC 2015-12-11 06:46:04
    Menu #1
    00:00:00.000 : 1
    00:10:02.280 : 2
    00:19:42.680 : 3
    00:28:29.960 : 4
    00:40:06.800 : 5
    00:53:31.680 : 6
    01:07:38.800 : 7
    01:23:16.160 : 8
    Menu #2
    ID : 5
    Codec ID : text
    Duration : 1h 27mn
    Title : Chapter Titles
    Language : English
    Encoded date : UTC 2015-12-11 06:46:58
    Tagged date : UTC 2015-12-11 06:46:58
    Bit rate mode : CBR
    Menu For : 2,1
    00:00:00.000 : 1
    00:10:02.280 : 2
    00:19:42.680 : 3
    00:28:29.960 : 4
    00:40:06.800 : 5
    00:53:31.680 : 6
    01:07:38.800 : 7
    01:23:16.160 : 8

    x264 лог 480p Release

    HandBrakeCLI -i "/CHINGACHGOOK_1967_HDCLUB/BDMV/STREAM/00005.m2ts" -t 1 -o "Chingachgook.480p.ger.m4v" -f mp4 -I -O -w 640 -l 362 --crop 132:132:0:0 --custom-anamorphic --modulus 2 --pixel-aspect 852:640 -e x264 -b 1800 -2 -a none -x cabac=0:ref=2:me=umh:bframes=0:weightp=0:subq=6:8x8dct=0:trellis=0:vbv-maxrate=5000:vbv-bufsize=5000 --verbose=1
    x264 [info]: frame I:1131  Avg QP:20.40  size: 38896  PSNR Mean Y:42.97 U:49.25 V:48.25 Avg:44.15 Global:43.62
    x264 [info]: frame P:130087 Avg QP:22.53  size:  8724  PSNR Mean Y:40.41 U:45.93 V:44.84 Avg:41.51 Global:40.98
    x264 [info]: mb I  I16..4: 11.7%  0.0% 88.3%
    x264 [info]: mb P  I16..4:  0.4%  0.0%  4.2%  P16..4: 48.4% 22.4% 10.7%  0.0%  0.0%    skip:13.9%
    x264 [info]: coded y,uvDC,uvAC intra: 87.6% 81.7% 49.7% inter: 39.6% 30.9% 4.1%
    x264 [info]: i16 v,h,dc,p: 31% 15% 11% 43%
    x264 [info]: i4 v,h,dc,ddl,ddr,vr,hd,vl,hu: 26% 12% 13%  7%  9% 11%  7%  9%  7%
    x264 [info]: i8c dc,h,v,p: 49% 15% 27%  9%
    x264 [info]: ref P L0: 81.0% 19.0%
    x264 [info]: SSIM Mean Y:0.9764701 (16.284db)
    x264 [info]: PSNR Mean Y:40.432 U:45.957 V:44.874 Avg:41.530 Global:40.993 kb/s:1796.82

    x264 лог 720p Release

    HandBrakeCLI -i "/CHINGACHGOOK_1967_HDCLUB/BDMV/STREAM/00005.m2ts" -t 1 -o "Chingachgook.720p.ger.m4v" -f mp4 -4 -O -w 1280 -l 544 --crop 132:132:0:0 --modulus 16 -e x264 -b 7000 -2 -a none -x cabac=0:ref=3:me=umh:b-pyramid=none:b-adapt=2:weightb=0:trellis=0:weightp=0:vbv-maxrate=9500:vbv-bufsize=9500:subq=9:merange=32:deblock=-3,-2:qcomp=0.60:qpmin=0:qpmax=69:fast_pskip=0:aq-strength=0.8:no-dct-decimate=1:psy-rd=1.00,0.25 --verbose=1
    x264 [info]: frame I:831   Avg QP:16.18  size:163108  PSNR Mean Y:46.42 U:51.59 V:50.72 Avg:47.48 Global:47.06
    x264 [info]: frame P:47300 Avg QP:18.77  size: 66116  PSNR Mean Y:43.25 U:49.47 V:48.47 Avg:44.44 Global:43.92
    x264 [info]: frame B:83087 Avg QP:22.60  size: 15804  PSNR Mean Y:41.16 U:49.04 V:47.69 Avg:42.51 Global:41.91
    x264 [info]: consecutive B-frames:  1.5% 24.5% 52.8% 21.2%
    x264 [info]: mb I  I16..4:  1.7% 52.8% 45.5%
    x264 [info]: mb P  I16..4:  0.7%  9.3%  6.0%  P16..4: 37.7% 31.7% 14.0%  0.0%  0.0%    skip: 0.6%
    x264 [info]: mb B  I16..4:  0.1%  2.1%  1.6%  B16..8: 38.4% 11.4%  2.7%  direct: 9.0%  skip:34.6%  L0:33.2% L1:49.6% BI:17.3%
    x264 [info]: 8x8 transform intra:56.6% inter:43.1%
    x264 [info]: coded y,uvDC,uvAC intra: 94.7% 78.5% 44.1% inter: 44.4% 33.7% 13.5%
    x264 [info]: i16 v,h,dc,p: 30% 12%  8% 50%
    x264 [info]: i8 v,h,dc,ddl,ddr,vr,hd,vl,hu: 10%  9%  3% 10% 15% 15% 14% 12% 12%
    x264 [info]: i4 v,h,dc,ddl,ddr,vr,hd,vl,hu:  8%  9%  2% 10% 16% 16% 15% 11% 12%
    x264 [info]: i8c dc,h,v,p: 45% 19% 24% 13%
    x264 [info]: ref P L0: 80.5% 12.2%  7.3%
    x264 [info]: ref B L0: 92.0%  8.0%
    x264 [info]: SSIM Mean Y:0.9739897 (15.849db)
    x264 [info]: PSNR Mean Y:41.945 U:49.212 V:47.989 Avg:43.237 Global:42.551 kb/s:6974.56

    Скриншоты 480p Release

    Скриншоты 720p Release

    Цитата:
    Цитата:

    • Все фильмы с Гойко Митичем в советском прокате были порезаны цензурой. Недостающие моменты переведены Юрием Сербиным.
    -

    Релиз подготовлен для просмотра на Apple TV, iPad, iPhone, iPod Touch.
    Для просмотра данного релиза на компьютере с ОС Windows рекомендуется использовать VLC media player
    Скачать .torrent

    Скачать торрент-файл бесплатно и на максимальной скорости!

    Как скачивать? · Что такое торрент? · Рейтинг и ограничения

    !ВНИМАНИЕ!
    Сайт не распространяет и не хранит электронные версии произведений, а занимается лишь лишь предоставлением доступа к создаваемому пользователями каталогу ссылок на торрент-файлы, которые содержат только списки хеш-сумм, убедительная просьба с жалобами обращаться напрямую к пользователю. Файлы для обмена на трекере предоставлены пользователями сайта, и администрация не несёт ответственности за их содержание. Просьба не заливать файлы, защищенные авторскими правами, а также файлы нелегального содержания!


    _________________
    [Профиль] [ЛС]
    Показать сообщения:    
    Ответить на тему

    Текущее время: Сегодня, в 20:53

    Часовой пояс: GMT + 2



    Вы не можете начинать темы
    Вы не можете отвечать на сообщения
    Вы не можете редактировать свои сообщения
    Вы не можете удалять свои сообщения
    Вы не можете голосовать в опросах
    Вы не можете прикреплять файлы к сообщениям
    Вы не можете скачивать файлы