BitTorrentTracker PerecTracker.org
BitTorrentTracker PerecTracker.org
    
Регистрация  ·  Вход
 
 · 
Забыли пароль?

  • Чико и Рита / Chico & Rita (Тоно Эррандо / Tono Errando, Хавьер Марискаль / Javier Mariscal, Фернандо Труэба / Fernand) [2010, Великобритания, Испания, музыкальная мелодрама, мультфильм для взрослых, BDRip] MVO + Rus Sub, Eng + original Spa

    Ответить на тему
     
    Автор Сообщение

    rechyn

    Создавать темы 22-Дек-2015 19:38

           

    [Цитировать]

    Чико и Рита / Chico & Rita
    Страна: Великобритания, Испания
    Жанр: музыкальная мелодрама, мультфильм для взрослых
    Продолжительность: 01:33:21
    Год выпуска: 2010
    Перевод: Профессиональный (многоголосый закадровый)
    Русские субтитры: есть

    Режиссёр: Тоно Эррандо / Tono Errando, Хавьер Марискаль / Javier Mariscal, Фернандо Труэба / Fernand
    Роли озвучивали: Лимара Менесес, Эман Хоро Онья, Марио Гуерра, Джон Адамс, Ренни Аросарена, Бланка Роза Бланко, Джеки де ла Нуес, Ригоберто Феррера, Кен Форман, Рэй Гильон
    Описание: Эта страстная история любви началась на Кубе конца 40-х годов. Чико — молодой пианист, влюбленный в джаз, Рита мечтает стать великой певицей. С той ночи, когда по воле судьбы они знакомятся в танце в одном из клубов Гаваны, жизнь постоянно соединяет и разлучает их, как персонажей болеро.
    --- Работа со звуком xfiles
    - Работа с BDRemux'ом -Azureus---Качество: BDRip
    Формат: AVI
    Видео: 704x400 (1.76:1), 24 fps, XviD build 73 ~1775 kbps avg, 0.26 bit/pixel
    Аудио: 48 kHz, AC3 Dolby Digital, 3/2 (L,C,R,l,r) + LFE ch, ~448 kbps - многоголосый
    Аудио: 48 kHz, AC3 Dolby Digital, 3/2 (L,C,R,l,r) + LFE ch, ~448 kbps - оригинал (отдельным файл)
    Субтитры: русские, английские

    Подробные технические данные

    ОбщееПолное имя : H:\Chico.&.Rita.2010.bdrip_[1.46]_[teko]\Chico.&.Rita.2010.bdrip_[1.46].aviФормат : AVIФормат/Информация : Audio Video InterleaveРазмер файла : 1,46 ГбайтПродолжительность : 1 ч. 33 м.Общий поток : 2233 Кбит/секПрограмма кодирования : VirtualDubMod 1.5.10.3 | www.virtualdub-fr.org || (build 2550/release)Библиотека кодирования : VirtualDubMod build 2550/release
    ВидеоИдентификатор : 0Формат : MPEG-4 VisualПрофиль формата : Advanced Simple@L5Параметр BVOP формата : 1Параметр QPel формата : НетПараметр GMC формата : Без точки переходаПараметр матрицы формата : ВыборочнаяИдентификатор кодека : XVIDИдентификатор кодека/Подсказка : XviDПродолжительность : 1 ч. 33 м.Битрейт : 1776 Кбит/секШирина : 704 пикселяВысота : 400 пикселейСоотношение сторон : 16:9Частота кадров : 24,000 кадра/секЦветовое пространство : YUVСубдискретизация насыщенности : 4:2:0Битовая глубина : 8 битТип развёртки : ПрогрессивнаяМетод сжатия : С потерямиБит/(Пиксели*Кадры) : 0.263Размер потока : 1,16 Гбайт (80%)Библиотека кодирования : XviD 73
    АудиоИдентификатор : 1Формат : AC-3Формат/Информация : Audio Coding 3Расширение режима : CM (complete main)Параметр Endianness формата : BigИдентификатор кодека : 2000Продолжительность : 1 ч. 33 м.Вид битрейта : ПостоянныйБитрейт : 448 Кбит/секКаналы : 6 каналовРасположение каналов : Front: L C R, Side: L R, LFEЧастота : 48,0 КГцБитовая глубина : 16 битМетод сжатия : С потерямиРазмер потока : 299 Мбайт (20%)Выравнивание : Разделение по промежуткамПродолжительность промежутка : 42 мс. (1,00 видеокадр)Время предзагрузки промежутка : 500 мс.

    Скриншоты

    Релиз группы:

    -
    -
    Скачать .torrent

    Скачать торрент-файл бесплатно и на максимальной скорости!

    Как скачивать? · Что такое торрент? · Рейтинг и ограничения

    !ВНИМАНИЕ!
    Сайт не распространяет и не хранит электронные версии произведений, а занимается лишь лишь предоставлением доступа к создаваемому пользователями каталогу ссылок на торрент-файлы, которые содержат только списки хеш-сумм, убедительная просьба с жалобами обращаться напрямую к пользователю. Файлы для обмена на трекере предоставлены пользователями сайта, и администрация не несёт ответственности за их содержание. Просьба не заливать файлы, защищенные авторскими правами, а также файлы нелегального содержания!


    _________________
    [Профиль] [ЛС]
    Показать сообщения:    
    Ответить на тему

    Текущее время: Сегодня, в 12:50

    Часовой пояс: GMT + 2



    Вы не можете начинать темы
    Вы не можете отвечать на сообщения
    Вы не можете редактировать свои сообщения
    Вы не можете удалять свои сообщения
    Вы не можете голосовать в опросах
    Вы не можете прикреплять файлы к сообщениям
    Вы не можете скачивать файлы