BitTorrentTracker PerecTracker.org
BitTorrentTracker PerecTracker.org
    
Регистрация  ·  Вход
 
 · 
Забыли пароль?

  • Все люди лгут / Liars All (Брайан Брайтли / Brian Brightly) [2013, США, триллер, HDRip] MVO (НТВ+) + Original Eng

    Ответить на тему
     
    Автор Сообщение

    rechyn

    Создавать темы 22-Дек-2015 15:26

           

    [Цитировать]

    Все люди лгут / Liars All
    Страна: США
    Жанр: триллер
    Год выпуска: 2013
    Продолжительность: 01:31:44
    Перевод: Профессиональный (многоголосый закадровый) НТВ+
    Cубтитры: нет
    Оригинальная аудиодорожка: английский
    Режиссер: Брайан Брайтли / Brian Brightly
    В ролях: Сара Пэкстон, Мэтт Лантер, Элис Эванс, Дэрин Брукс, Рэнди Уэйн, Джиллиан Зинсер, Тим Филлиппс, Торранс Кумбс, Клер Скотт, Тиффани Малхерон, Брайан Махони,Стефани МакИнтош, Теган Саммер, Генри Херфорд, Морис Эндрюс, Уоррен Дрэйпер, Чарльз МакНайт, Патрик Тулан, Элизабет ДиМария
    Описание: В канун нового года в Лондоне группа друзей играет в провокационную игру, которая постепенно выходит из под контроля и заканчивается убийством. Несмотря на немедленное расследование дела полицией, истинный убийца остается неуловимым среди противоречивых показаний и скрытых мотивов. Ночь с откровениями и новоявленной близостью принимает неожиданный поворот, в результате чего получается взрывной результат, который изменит их жизнь навсегда.
    Доп. информация: Звук с канала Кинолюкс
    Сэмпл: http://multi-up.com/1080467
    Качество видео: HDRip
    Формат видео: AVI
    Видео: MPEG4, XviD, 720x304 (2.35:1), 23.976 fps, 1 366 Kbps (0.260 bit/pixel)
    Аудио: AC-3, 48.0 KHz, 5 ch, 448 Kbps, CBR - русский
    Аудио 2: AC-3, 48.0 KHz, 6 ch, 448 Kbps, CBR - английский

    MediaInfo

    бщее
    Полное имя : K:\Все люди лгут.avi
    Формат : AVI
    Формат/Информация : Audio Video Interleave
    Размер файла : 1,45 Гбайт
    Продолжительность : 1 ч. 31 м.
    Общий поток : 2276 Кбит/сек
    Название фильма : Все люди лгут / Liars All (2013)
    Программа кодирования : VirtualDubMod 1.5.10.2 (build 2540/release)
    Библиотека кодирования : VirtualDubMod build 2540/release
    Авторское право : miha2154
    Видео
    Идентификатор : 0
    Формат : MPEG-4 Visual
    Профиль формата : Advanced Simple@L5
    Параметр BVOP формата : 1
    Параметр QPel формата : Нет
    Параметр GMC формата : Без точки перехода
    Параметр матрицы формата : Выборочная
    Идентификатор кодека : XVID
    Идентификатор кодека/Подсказка : XviD
    Продолжительность : 1 ч. 31 м.
    Битрейт : 1366 Кбит/сек
    Ширина : 720 пикселей
    Высота : 304 пикселя
    Соотношение сторон : 2,35:1
    Частота кадров : 23,976 (24000/1001) кадра/сек
    Цветовое пространство : YUV
    Субдискретизация насыщенности : 4:2:0
    Битовая глубина : 8 бит
    Тип развёртки : Прогрессивная
    Метод сжатия : С потерями
    Бит/(Пиксели*Кадры) : 0.260
    Размер потока : 894 Мбайт (60%)
    Библиотека кодирования : XviD 65
    Аудио #1
    Идентификатор : 1
    Формат : AC-3
    Формат/Информация : Audio Coding 3
    Расширение режима : CM (complete main)
    Параметр Endianness формата : Big
    Идентификатор кодека : 2000
    Продолжительность : 1 ч. 31 м.
    Вид битрейта : Постоянный
    Битрейт : 448 Кбит/сек
    Каналы : 6 каналов
    Channel(s)_Original : 5 каналов
    Расположение каналов : Front: L C R, Side: L R
    Частота : 48,0 КГц
    Частота кадров : 31,250 кадров/сек (1536 spf)
    Метод сжатия : С потерями
    Размер потока : 293 Мбайт (20%)
    Выравнивание : Разделение по промежуткам
    Продолжительность промежутка : 42 мс. (1,00 видеокадр)
    Время предзагрузки промежутка : 500 мс.
    Заголовок : Профессиональный (многоголосый закадровый) Кинолюкс
    Аудио #2
    Идентификатор : 2
    Формат : AC-3
    Формат/Информация : Audio Coding 3
    Расширение режима : CM (complete main)
    Параметр Endianness формата : Big
    Идентификатор кодека : 2000
    Продолжительность : 1 ч. 31 м.
    Вид битрейта : Постоянный
    Битрейт : 448 Кбит/сек
    Каналы : 6 каналов
    Расположение каналов : Front: L C R, Side: L R, LFE
    Частота : 48,0 КГц
    Частота кадров : 31,250 кадров/сек (1536 spf)
    Метод сжатия : С потерями
    Размер потока : 293 Мбайт (20%)
    Выравнивание : Разделение по промежуткам
    Продолжительность промежутка : 42 мс. (1,00 видеокадр)
    Время предзагрузки промежутка : 500 мс.
    Заголовок : Английский

    Скриншот c названием фильма

    Скриншоты


    Торрент перезалит 22.12.15 - заменен WEB-DLRip на HDRip (наполнение кадра немного больше со всех сторон)
    Скачать .torrent

    Скачать торрент-файл бесплатно и на максимальной скорости!

    Как скачивать? · Что такое торрент? · Рейтинг и ограничения

    !ВНИМАНИЕ!
    Сайт не распространяет и не хранит электронные версии произведений, а занимается лишь лишь предоставлением доступа к создаваемому пользователями каталогу ссылок на торрент-файлы, которые содержат только списки хеш-сумм, убедительная просьба с жалобами обращаться напрямую к пользователю. Файлы для обмена на трекере предоставлены пользователями сайта, и администрация не несёт ответственности за их содержание. Просьба не заливать файлы, защищенные авторскими правами, а также файлы нелегального содержания!


    _________________
    [Профиль] [ЛС]
    Показать сообщения:    
    Ответить на тему

    Текущее время: Сегодня, в 04:06

    Часовой пояс: GMT + 2



    Вы не можете начинать темы
    Вы не можете отвечать на сообщения
    Вы не можете редактировать свои сообщения
    Вы не можете удалять свои сообщения
    Вы не можете голосовать в опросах
    Вы не можете прикреплять файлы к сообщениям
    Вы не можете скачивать файлы