BitTorrentTracker PerecTracker.org
BitTorrentTracker PerecTracker.org
    
Регистрация  ·  Вход
 
 · 
Забыли пароль?

  • Копы в юбках / The Heat (Пол Фиг / Paul Feig) [2013, США, комедия, криминал, боевик, детектив, HDTV 1080i] Dub

    Ответить на тему
     
    Автор Сообщение

    Flirldrerve

    Создавать темы 22-Дек-2015 07:03

           

    [Цитировать]

    Копы в юбках / The Heat
    Страна: США
    Жанр: комедия, криминал, боевик, детектив
    Год выпуска: 2013
    Продолжительность: 01:47:32
    Перевод: Профессиональный (дублированный)
    Cубтитры: нет
    Оригинальная аудиодорожка: нет
    Режиссер: Пол Фиг / Paul Feig
    В ролях: Сандра Буллок, Мелисса МакКарти, Демиан Бишир, Марлон Уайанс, Майкл Рапапорт, Томас Ф. Уилсон, Майкл МакДональд, Дэн Баккедаль, Таран Киллэм, Джейн Куртин, Спокен Ризонс, Таран Киллэм.
    Описание: Агенту ФБР и бостонскому полицейскому доверено ответственное задание: выйти на след и обезвредить опасного преступника. И это даже хорошо, что копы — женщины, ведь бандит-то — русский. А непредсказуемости русской смекалки можно противопоставить только столь же непредсказуемую женскую логику.
    Доп. информация: HDTV и BD имеют разное наполнение кадра http://screenshotcomparison.com/comparison/152167
    Сэмпл: http://multi-up.com/1076989
    Тип релиза: HDTV 1080i
    Контейнер: TS
    Видео: AVC, 1920x1080 (16:9), 25.000 fps, 6 835 Kbps (0.132 bit/pixel)
    Аудио: MP2, 48.0 KHz, 2 ch, 192 Kbps, CBR (Russian)

    MediaInfo

    Общее
    Идентификатор : 3 (0x3)
    Полное имя : K:\Копы в юбках.ts
    Формат : MPEG-TS
    Размер файла : 5,55 Гбайт
    Продолжительность : 1 ч. 47 м.
    Режим общего битрейта : Переменный
    Общий поток : 7394 Кбит/сек
    Видео
    Идентификатор : 2141 (0x85D)
    Идентификатор меню : 21004 (0x520C)
    Формат : AVC
    Формат/Информация : Advanced Video Codec
    Профиль формата : Main@L4
    Параметр CABAC формата : Да
    Параметр ReFrames формата : 3 кадра
    Идентификатор кодека : 27
    Продолжительность : 1 ч. 47 м.
    Битрейт : 6835 Кбит/сек
    Ширина : 1920 пикселей
    Высота : 1080 пикселей
    Соотношение сторон : 16:9
    Частота кадров : 25,000 кадров/сек
    Стандарт вещания : Component
    Цветовое пространство : YUV
    Субдискретизация насыщенности : 4:2:0
    Битовая глубина : 8 бит
    Тип развёртки : Чересстрочная
    Порядок развёртки : Верхнее поле первое
    Бит/(Пиксели*Кадры) : 0.132
    Размер потока : 5,13 Гбайт (92%)
    Цветовой диапазон : Limited
    Основные цвета : BT.709
    Характеристики трансфера : BT.709
    Коэффициенты матрицы : BT.709
    Аудио
    Идентификатор : 2142 (0x85E)
    Идентификатор меню : 21004 (0x520C)
    Формат : MPEG Audio
    Версия формата : Version 1
    Профиль формата : Layer 2
    Идентификатор кодека : 4
    Продолжительность : 1 ч. 47 м.
    Вид битрейта : Постоянный
    Битрейт : 192 Кбит/сек
    Каналы : 2 канала
    Частота : 48,0 КГц
    Метод сжатия : С потерями
    Задержка видео : -7 мс.
    Размер потока : 148 Мбайт (3%)
    Язык : Russian

    Скриншоты

    Скачать .torrent

    Скачать торрент-файл бесплатно и на максимальной скорости!

    Как скачивать? · Что такое торрент? · Рейтинг и ограничения

    !ВНИМАНИЕ!
    Сайт не распространяет и не хранит электронные версии произведений, а занимается лишь лишь предоставлением доступа к создаваемому пользователями каталогу ссылок на торрент-файлы, которые содержат только списки хеш-сумм, убедительная просьба с жалобами обращаться напрямую к пользователю. Файлы для обмена на трекере предоставлены пользователями сайта, и администрация не несёт ответственности за их содержание. Просьба не заливать файлы, защищенные авторскими правами, а также файлы нелегального содержания!


    _________________
    [Профиль] [ЛС]
    Показать сообщения:    
    Ответить на тему

    Текущее время: Сегодня, в 16:18

    Часовой пояс: GMT + 2



    Вы не можете начинать темы
    Вы не можете отвечать на сообщения
    Вы не можете редактировать свои сообщения
    Вы не можете удалять свои сообщения
    Вы не можете голосовать в опросах
    Вы не можете прикреплять файлы к сообщениям
    Вы не можете скачивать файлы