BitTorrentTracker PerecTracker.org
BitTorrentTracker PerecTracker.org
    
Регистрация  ·  Вход
 
 · 
Забыли пароль?

  • В поисках Ричарда / Looking for Richard (Аль Пачино / Al Pacino) [1996, США, документальный, драма, WEB-DL 720p] MVO (1 канал) + AVO (С. Визгунов) + Sub Rus + Original Eng

    Ответить на тему
     
    Автор Сообщение

    Flirldrerve

    Создавать темы 22-Дек-2015 07:03

           

    [Цитировать]

    В поисках Ричарда / Looking for Richard
    Страна: США
    Студия: Chal Productions, Jam Productions, Twentieth Century Fox Film Corporation
    Жанр: документальный, драма
    Год выпуска: 1996
    Продолжительность: 01:52:02
    Перевод 1: Профессиональный (многоголосый закадровый) 1 канал
    Перевод 2: Авторский (одноголосый закадровый) Сергей Визгунов
    Cубтитры: русские
    Оригинальная аудиодорожка: английский
    Режиссер: Аль Пачино / Al Pacino
    В ролях: Аль Пачино, Фредерик Кимболл, Кевин Спейси, Алек Болдуин, Вайнона Райдер, Харрис Юлин, Пенелопа Аллен, Кевин Конуэй, Эстелл Парсонс, Ларри Бриггман, Винсент Энджелл, Гордон МакДональд, Мэдисон Арнольд, Брюс МакВитти, Пол Гилфойл, Эйдан Куинн
    Описание: Аль Пачино выступает в этом совершенно оригинальном документальном фильме в качестве режиссёра и актёра, исполняя роль Ричарда Третьего. «В поисках Ричарда» — не только экранизация отдельных сцен шекспировской пьесы, но и размышление о современном восприятии Шекспира, и исследование процесса работы актёров над образами своих героев, с участием экспертов Шекспировской драматургии.
    II Сэмпл II IMDB II
    Доп. информация:
    За перевод 1 канала спасибо Glai
    За авторский перевод Сергея Визгунова спасибо xelon2006
    Субтитры:
    Перевод художественного текста: Миx. Донской,
    М. Кузмин, А. Радлова, Е.Савич, М.Лозинский, Н. Рыкова.

    Перевод оригинального текста: Freken
    Тип релиза: WEB-DL 720p
    Контейнер: MKV
    Видео: AVC / 1280x720 / 16:9 / 23.976fps / Bit rate 6000kbps
    Аудио 1: AC3 / 48.0 KHz / 2ch. / 192kbps / rus / MVO / 1 канал
    Аудио 2: AC3 / 48.0 KHz / 2ch. / 192kbps / rus / AVO / Сергей Визгунов
    Аудио 3: AAC-LC / 48.0 KHz / 2ch. / 126kbps / eng
    Формат субтитров: softsub (SRT)

    MediaInfo

    Общее
    Уникальный идентификатор : 238902501240862166565869836917572495566 (0xB3BAF2B63702D2359004B3A90DE1E8CE)
    Полное имя : G:\!!!_torrent\Looking.for.Richard.1996.WEB-DL.720p_by_vedigo.mkv
    Формат : Matroska
    Версия формата : Version 4 / Version 2
    Размер файла : 5,04 Гбайт
    Продолжительность : 1 ч. 52 м.
    Общий поток : 6434 Кбит/сек
    Название фильма : Looking.for.Richard.1996.WEB-DL.720p_by_vedigo
    Дата кодирования : UTC 2015-11-30 01:04:40
    Программа кодирования : mkvmerge v8.6.1 ('Flying') 64bit
    Библиотека кодирования : libebml v1.3.3 + libmatroska v1.4.4
    DURATION : 01:47:26.280000000
    NUMBER_OF_FRAMES : 1534
    NUMBER_OF_BYTES : 103541
    _STATISTICS_WRITING_APP : mkvmerge v8.6.1 ('Flying') 64bit
    _STATISTICS_WRITING_DATE_UTC : 2015-11-30 01:04:40
    _STATISTICS_TAGS : BPS DURATION NUMBER_OF_FRAMES NUMBER_OF_BYTES
    Видео
    Идентификатор : 1
    Формат : AVC
    Формат/Информация : Advanced Video Codec
    Профиль формата : High@L3.1
    Параметр CABAC формата : Да
    Параметр ReFrames формата : 4 кадра
    Параметр GOP формата : M=4, N=48
    Идентификатор кодека : V_MPEG4/ISO/AVC
    Продолжительность : 1 ч. 52 м.
    Вид битрейта : Постоянный
    Номинальный битрейт : 6000 Кбит/сек
    Ширина : 1280 пикселей
    Высота : 720 пикселей
    Соотношение сторон : 16:9
    Режим частоты кадров : Постоянный
    Частота кадров : 23,976 кадра/сек
    Цветовое пространство : YUV
    Субдискретизация насыщенности : 4:2:0
    Битовая глубина : 8 бит
    Тип развёртки : Прогрессивная
    Бит/(Пиксели*Кадры) : 0.272
    Заголовок : Looking.for.Richard.1996.WEB-DL.720p_by_vedigo
    Default : Да
    Forced : Нет
    Цветовой диапазон : Limited
    Основные цвета : BT.709
    Характеристики трансфера : BT.709
    Коэффициенты матрицы : BT.709
    Аудио #1
    Идентификатор : 2
    Формат : AC-3
    Формат/Информация : Audio Coding 3
    Расширение режима : CM (complete main)
    Параметр Endianness формата : Big
    Идентификатор кодека : A_AC3
    Продолжительность : 1 ч. 52 м.
    Вид битрейта : Постоянный
    Битрейт : 192 Кбит/сек
    Каналы : 2 канала
    Расположение каналов : Front: L R
    Частота : 48,0 КГц
    Метод сжатия : С потерями
    Размер потока : 154 Мбайт (3%)
    Заголовок : MVO @ 1 канал
    Язык : Russian
    Default : Да
    Forced : Нет
    Аудио #2
    Идентификатор : 3
    Формат : AC-3
    Формат/Информация : Audio Coding 3
    Расширение режима : CM (complete main)
    Параметр Endianness формата : Big
    Идентификатор кодека : A_AC3
    Продолжительность : 1 ч. 52 м.
    Вид битрейта : Постоянный
    Битрейт : 192 Кбит/сек
    Каналы : 2 канала
    Расположение каналов : Front: L R
    Частота : 48,0 КГц
    Метод сжатия : С потерями
    Размер потока : 154 Мбайт (3%)
    Заголовок : AVO @ Сергей Визгунов
    Язык : Russian
    Default : Нет
    Forced : Нет
    Аудио #3
    Идентификатор : 4
    Формат : AAC
    Формат/Информация : Advanced Audio Codec
    Профиль формата : LC
    Идентификатор кодека : A_AAC
    Продолжительность : 1 ч. 52 м.
    Каналы : 2 канала
    Расположение каналов : Front: L R
    Частота : 48,0 КГц
    Метод сжатия : С потерями
    Заголовок : original
    Язык : English
    Default : Нет
    Forced : Нет
    Текст
    Идентификатор : 5
    Формат : UTF-8
    Идентификатор кодека : S_TEXT/UTF8
    Идентификатор кодека/Информация : UTF-8 Plain Text
    Заголовок : subtitle rus
    Язык : Russian
    Default : Нет
    Forced : Нет

    Скриншоты


    Скачать .torrent

    Скачать торрент-файл бесплатно и на максимальной скорости!

    Как скачивать? · Что такое торрент? · Рейтинг и ограничения

    !ВНИМАНИЕ!
    Сайт не распространяет и не хранит электронные версии произведений, а занимается лишь лишь предоставлением доступа к создаваемому пользователями каталогу ссылок на торрент-файлы, которые содержат только списки хеш-сумм, убедительная просьба с жалобами обращаться напрямую к пользователю. Файлы для обмена на трекере предоставлены пользователями сайта, и администрация не несёт ответственности за их содержание. Просьба не заливать файлы, защищенные авторскими правами, а также файлы нелегального содержания!


    _________________
    [Профиль] [ЛС]
    Показать сообщения:    
    Ответить на тему

    Текущее время: Сегодня, в 06:48

    Часовой пояс: GMT + 2



    Вы не можете начинать темы
    Вы не можете отвечать на сообщения
    Вы не можете редактировать свои сообщения
    Вы не можете удалять свои сообщения
    Вы не можете голосовать в опросах
    Вы не можете прикреплять файлы к сообщениям
    Вы не можете скачивать файлы