BitTorrentTracker PerecTracker.org
BitTorrentTracker PerecTracker.org
    
Регистрация  ·  Вход
 
 · 
Забыли пароль?

  • Фантастическая четверка / Fantastic Four (Джош Транк / Josh Trank) [2015, США, Германия, Великобритания, Канада, фантастика, боевик, приключения, BDRip 720p] Dub (Blu-ray EUR) + Sub Rus, Eng + Original Eng

    Ответить на тему
     
    Автор Сообщение

    Flirldrerve

    Создавать темы 22-Дек-2015 07:03

           

    [Цитировать]

    Фантастическая четверка / Fantastic Four
    Страна: США, Германия, Великобритания, Канада
    Жанр: фантастика, боевик, приключения
    Год выпуска: 2015
    Продолжительность: 01:39:58
      -Перевод: Профессиональный (дублированный) Blu-ray EUR
      Cубтитры: Russian (Forced, iTunes), Russian (iTunes), Ukrainian (iTunes), English, English (SDH)
      Оригинальная аудиодорожка: английский
        -Режиссер: Джош Транк / Josh Trank
          -В ролях: Майлз Теллер, Майкл Б. Джордан, Кейт Мара, Джейми Белл, Тоби Кеббелл, Рег Э. Кэти, Тим Блейк Нельсон, Джошуа Монтес, Дэн Кастелланета, Оуэн Джадж
          Описание: История о четырех молодых астронавтах, которые отважились на авантюрное путешествие в параллельное измерение для исследования аномальной волны космической энергии. Вернувшись из путешествия, они обнаружили у себя суперспособности, которые навсегда изменили их жизни.
            -Рип от CRiSC!
              -Релиз от:
                -Тип релиза: BDRip 720p
                Контейнер: MKV
                  -Видео: 1280 x 536 (2,40:1), 23,976 fps, MPEG-4 AVC, ~ 5812 kbps
                    -Аудио 1: Russian: 48 kHz, DTS, 3/2 (L,C,R,l,r) + LFE ch, ~768.00 kbps avg
                    Аудио 2: Ukrainian: 48 kHz, AC3, 3/2 (L,C,R,l,r) + LFE ch, ~448.00 kbps avg
                    Аудио 3: English: 48 kHz, DTS-ES, 3/3 (L,C,R,l,c,r) + LFE ch, ~1536.00 kbps avg

                    MediaInfo

                    Общее
                    Уникальный идентификатор : 199924755873170359971358313557583555244 (0x96681B7E4EA3935C9000F5122AA56AAC)
                    Полное имя : D:\Fantastic Four 720p\Fantastic.Four.2015.720p.BluRay.Rus.Ukr.Eng.HDCLUB.mkv
                    Формат : Matroska
                    Версия формата : Version 2
                    Размер файла : 6,08 Гбайт
                    Продолжительность : 1 ч. 39 м.
                    Общий поток : 8710 Кбит/сек
                    Название фильма : Fantastic Four (2015) - Release for HDCLUB
                    Дата кодирования : UTC 2015-12-02 08:01:34
                    Программа кодирования : mkvmerge v3.4.0 ('Rapunzel') built on May 15 2010 09:38:20
                    Библиотека кодирования : libebml v0.8.0 + libmatroska v0.9.0
                    Видео
                    Идентификатор : 1
                    Формат : AVC
                    Формат/Информация : Advanced Video Codec
                    Профиль формата : High@L4.1
                    Параметр CABAC формата : Да
                    Параметр ReFrames формата : 12 кадров
                    Идентификатор кодека : V_MPEG4/ISO/AVC
                    Продолжительность : 1 ч. 39 м.
                    Битрейт : 5812 Кбит/сек
                    Ширина : 1280 пикселей
                    Высота : 536 пикселей
                    Соотношение сторон : 2,40:1
                    Режим частоты кадров : Постоянный
                    Частота кадров : 23,976 кадра/сек
                    Цветовое пространство : YUV
                    Субдискретизация насыщенности : 4:2:0
                    Битовая глубина : 8 бит
                    Тип развёртки : Прогрессивная
                    Бит/(Пиксели*Кадры) : 0.353
                    Размер потока : 4,06 Гбайт (67%)
                    Заголовок : Fantastic Four (2015) - Release for HDCLUB
                    Библиотека кодирования : x264 core 148 r2579kMod 73ae2d1
                    Настройки программы : cabac=1 / ref=12 / deblock=1:-3:-3 / analyse=0x3:0x133 / me=umh / subme=10 / psy=1 / fade_compensate=0.00 / psy_rd=1.05:0.00 / mixed_ref=1 / me_range=64 / chroma_me=1 / trellis=2 / 8x8dct=1 / cqm=0 / deadzone=21,11 / fast_pskip=0 / chroma_qp_offset=-2 / threads=12 / lookahead_threads=2 / sliced_threads=0 / nr=0 / decimate=0 / interlaced=0 / bluray_compat=0 / constrained_intra=0 / fgo=0 / bframes=9 / b_pyramid=2 / b_adapt=2 / b_bias=0 / direct=3 / weightb=1 / open_gop=0 / weightp=2 / keyint=250 / keyint_min=23 / scenecut=40 / intra_refresh=0 / rc_lookahead=40 / rc=crf / mbtree=0 / crf=16.0000 / qcomp=0.75 / qpmin=0 / qpmax=69 / qpstep=4 / vbv_maxrate=50000 / vbv_bufsize=62500 / crf_max=0.0 / nal_hrd=none / filler=0 / ip_ratio=1.10 / pb_ratio=1.10 / aq=3:0.70 / zones=612,877,crf=11/9476,9496,crf=11/9527,9551,crf=11/9582,9613,crf=11/32847,37902,crf=11/56868,59601,crf=11/57043,57103,crf=11/64590,64626,crf=11/64713,64749,crf=11/64931,65013,crf=11/71405,71536,crf=11/71578,71795,crf=11/73344,73468,crf=11/73624,73637,crf=11/74149,74194,crf=11/81127,81234,crf=11/85757,85770,crf=11/97930,98151,crf=11/105735,105805,crf=11/114285,114526,crf=11/116651,117048,crf=11/117971,118118,crf=11/118412,118459,crf=11/119774,119830,crf=11/120649,120727,crf=11/123481,123564,crf=11/127248,127453,crf=11/127803,127850,crf=11/127945,127982,crf=11/128645,128753,crf=11
                    Язык : English
                    Default : Да
                    Forced : Нет
                    Основные цвета : BT.709
                    Характеристики трансфера : BT.709
                    Коэффициенты матрицы : BT.709
                    colour_range : Limited
                    Аудио #1
                    Идентификатор : 2
                    Формат : DTS
                    Формат/Информация : Digital Theater Systems
                    Режим : 16
                    Параметр Endianness формата : Big
                    Идентификатор кодека : A_DTS
                    Продолжительность : 1 ч. 39 м.
                    Вид битрейта : Постоянный
                    Битрейт : 768 Кбит/сек
                    Каналы : 6 каналов
                    Расположение каналов : Front: L C R, Side: L R, LFE
                    Частота : 48,0 КГц
                    Битовая глубина : 24 бит
                    Метод сжатия : С потерями
                    Размер потока : 549 Мбайт (9%)
                    Заголовок : DTS 5.1 @ 768 kbps - DUB, Blu-ray EUR
                    Язык : Russian
                    Default : Да
                    Forced : Нет
                    Аудио #2
                    Идентификатор : 3
                    Формат : AC-3
                    Формат/Информация : Audio Coding 3
                    Расширение режима : CM (complete main)
                    Параметр Endianness формата : Big
                    Идентификатор кодека : A_AC3
                    Продолжительность : 1 ч. 39 м.
                    Вид битрейта : Постоянный
                    Битрейт : 448 Кбит/сек
                    Каналы : 6 каналов
                    Расположение каналов : Front: L C R, Side: L R, LFE
                    Частота : 48,0 КГц
                    Битовая глубина : 16 бит
                    Метод сжатия : С потерями
                    Размер потока : 320 Мбайт (5%)
                    Заголовок : AC3 5.1 @ 448 kbps - DUB, Blu-ray EUR
                    Язык : Ukrainian
                    Default : Нет
                    Forced : Нет
                    Аудио #3
                    Идентификатор : 4
                    Формат : DTS
                    Формат/Информация : Digital Theater Systems
                    Профиль формата : ES
                    Режим : 16
                    Параметр Endianness формата : Big
                    Идентификатор кодека : A_DTS
                    Продолжительность : 1 ч. 39 м.
                    Вид битрейта : Постоянный
                    Битрейт : 1509 Кбит/сек
                    Каналы : 6 каналов
                    Расположение каналов : Front: L C R, Side: L R, LFE
                    Частота : 48,0 КГц
                    Битовая глубина : 24 бит
                    Метод сжатия : С потерями
                    Размер потока : 1,05 Гбайт (17%)
                    Заголовок : DTS-ES 5.1 @ 1536 kbps
                    Язык : English
                    Default : Нет
                    Forced : Нет
                    Текст #1
                    Идентификатор : 5
                    Формат : UTF-8
                    Идентификатор кодека : S_TEXT/UTF8
                    Идентификатор кодека/Информация : UTF-8 Plain Text
                    Заголовок : Forced, iTunes
                    Язык : Russian
                    Default : Да
                    Forced : Нет
                    Текст #2
                    Идентификатор : 6
                    Формат : UTF-8
                    Идентификатор кодека : S_TEXT/UTF8
                    Идентификатор кодека/Информация : UTF-8 Plain Text
                    Заголовок : iTunes
                    Язык : Russian
                    Default : Нет
                    Forced : Нет
                    Текст #3
                    Идентификатор : 7
                    Формат : UTF-8
                    Идентификатор кодека : S_TEXT/UTF8
                    Идентификатор кодека/Информация : UTF-8 Plain Text
                    Заголовок : iTunes
                    Язык : Ukrainian
                    Default : Нет
                    Forced : Нет
                    Текст #4
                    Идентификатор : 8
                    Формат : UTF-8
                    Идентификатор кодека : S_TEXT/UTF8
                    Идентификатор кодека/Информация : UTF-8 Plain Text
                    Язык : English
                    Default : Нет
                    Forced : Нет
                    Текст #5
                    Идентификатор : 9
                    Формат : UTF-8
                    Идентификатор кодека : S_TEXT/UTF8
                    Идентификатор кодека/Информация : UTF-8 Plain Text
                    Заголовок : SDH
                    Язык : English
                    Default : Нет
                    Forced : Нет
                    Меню
                    00:00:00.000 : en:00:00:00.000
                    00:02:30.025 : en:00:02:30.025
                    00:07:22.609 : en:00:07:22.609
                    00:11:00.159 : en:00:11:00.159
                    00:14:59.524 : en:00:14:59.524
                    00:17:57.785 : en:00:17:57.785
                    00:22:03.322 : en:00:22:03.322
                    00:24:44.483 : en:00:24:44.483
                    00:27:49.877 : en:00:27:49.877
                    00:30:19.776 : en:00:30:19.776
                    00:34:56.011 : en:00:34:56.011
                    00:38:16.377 : en:00:38:16.377
                    00:43:10.087 : en:00:43:10.087
                    00:48:16.060 : en:00:48:16.060
                    00:51:35.301 : en:00:51:35.301
                    00:54:27.055 : en:00:54:27.055
                    00:57:18.101 : en:00:57:18.101
                    01:00:27.833 : en:01:00:27.833
                    01:04:34.913 : en:01:04:34.913
                    01:08:04.497 : en:01:08:04.497
                    01:12:08.282 : en:01:12:08.282
                    01:15:09.964 : en:01:15:09.964
                    01:19:10.162 : en:01:19:10.162
                    01:22:16.515 : en:01:22:16.515
                    01:24:49.543 : en:01:24:49.543
                    01:27:01.341 : en:01:27:01.341
                    01:30:49.569 : en:01:30:49.569
                    01:33:00.450 : en:01:33:00.450

                    Скриншоты

                    Скачать .torrent

                    Скачать торрент-файл бесплатно и на максимальной скорости!

                    Как скачивать? · Что такое торрент? · Рейтинг и ограничения

                    !ВНИМАНИЕ!
                    Сайт не распространяет и не хранит электронные версии произведений, а занимается лишь лишь предоставлением доступа к создаваемому пользователями каталогу ссылок на торрент-файлы, которые содержат только списки хеш-сумм, убедительная просьба с жалобами обращаться напрямую к пользователю. Файлы для обмена на трекере предоставлены пользователями сайта, и администрация не несёт ответственности за их содержание. Просьба не заливать файлы, защищенные авторскими правами, а также файлы нелегального содержания!


                    _________________
                    [Профиль] [ЛС]
                    Показать сообщения:    
                    Ответить на тему

                    Текущее время: Сегодня, в 15:42

                    Часовой пояс: GMT + 2



                    Вы не можете начинать темы
                    Вы не можете отвечать на сообщения
                    Вы не можете редактировать свои сообщения
                    Вы не можете удалять свои сообщения
                    Вы не можете голосовать в опросах
                    Вы не можете прикреплять файлы к сообщениям
                    Вы не можете скачивать файлы