BitTorrentTracker PerecTracker.org
BitTorrentTracker PerecTracker.org
    
Регистрация  ·  Вход
 
 · 
Забыли пароль?

  • Агенты А.Н.К.Л. / The Man from U.N.C.L.E. (Гай Ричи / Guy Ritchie) [2015, США, Великобритания, боевик, комедия, приключения, BDRip 720p] Dub + 2x VO (Есарев, Матвеев) + Ukr + Original Eng + Sub (Rus, Ukr, Eng)

    Ответить на тему
     
    Автор Сообщение

    Flirldrerve

    Создавать темы 22-Дек-2015 07:02

           

    [Цитировать]

    Агенты А.Н.К.Л. / The Man from U.N.C.L.E.«Герои высшего класса»______________________________________________________________________________________Страна: США, Великобритания
    Студия: Warner Bros., RatPac-Dune Entertainment, Wigram Productions
    Жанр: боевик, комедия, приключения
    Год выпуска: 2015
    Продолжительность: 01:56:29
    Перевод 1: Профессиональный (дублированный) | Blu-ray CEE
    Перевод 2: Одноголосый закадровый | Д. Есарев
    Перевод 3: Одноголосый закадровый | А. Матвеев aka Doctor Joker
    Оригинальная аудиодорожка: английский
    Cубтитры: русские, украинские, английские
    Режиссер: Гай Ричи / Guy Ritchie
    В ролях: Генри Кавилл, Арми Хаммер, Алисия Викандер, Элизабет Дебики, Хью Грант, Лука Кальвани, Сильвестр Грот, Джаред Харрис, Кристиан Беркель, Миша Кузнецов, Гай Уильямс, Марианна Ди Мартино
    Описание: Наполеон Соло - агент ЦРУ, на счету которого огромное количество успешно проведенных операций. Он считается одним из лучших секретных агентов во всем мире, и с ним может сравниться только один человек - самый молодой и перспективный агент КГБ, Илья Курякин. Их противостояние переросло в настоящую войну, в которой никто не собирается уступать. Однако обстоятельства складываются так, что непримиримые враги вынуждены стать напарниками. Это происходит после того как спецслужбы двух стран обнаруживают международную преступную организацию, которой удалось создать ядерную бомбу...______________________________________________________________________________________
    Видеоряд от: CtrlHD
    Тип релиза: BDRip 720p
    Контейнер: MKV
    Видео: 1280x534 at 23.976 fps, x264@L4.1, crf=15.5, ~6790 kbps avg
    Аудио 1: Russian: 48 kHz, AC3, 3/2 (L,C,R,l,r) + LFE ch, ~448.00 kbps avg |Дубляж, Blu-ray CEE|
    Аудио 2: Russian: 48 kHz, DTS, 3/2 (L,C,R,l,r) + LFE ch, ~1536 kbps avg |Одноголосый, Д. Есарев|
    Аудио 3: Russian: 48 kHz, DTS, 3/2 (L,C,R,l,r) + LFE ch, ~1536 kbps avg |Одноголосый, А. Матвеев aka Doctor Joker|
    Аудио 4: Ukrainian: 48 kHz, AC3, 2/0 (L,R) ch, ~192 kbps avg |Дубляж, iTunes|
    Аудио 5: English: 48 kHz, DTS, 3/2 (L,C,R,l,r) + LFE ch, ~1536 kbps avg
    Cубтитры: Russian (forced, full, A. Matveev), Ukrainian (forced), English (full, SDH)
    Цитата:
    Цитата:

    • Перевод Дмитрия Есарева доступен благодаря: mvch73, DREADG, mihaildns, timur, Skazhutin, shurikkein, Pr0peLLer, nortonn, napaHouk, -ALCASTER-.
    • Заказ перевода Алексея Матвеева: будулайроманов. Работа со звуком: Переводман.
    • Сохранены оригинальные главы как на Blu-ray.
    Торрент обновлён: WEB DL 720 заменён на BDRip 720 + звук с лицензии. 2015-12-07

    MediaInfo

    General
    Unique ID : 212920574419874249300753589426343799892 (0xA02F02D13B8E18C18CEB48F7C4866C54)
    Complete name : D:\The.Man.from.U.N.C.L.E.2015.720p.BluRay.3xRus.Ukr.Eng.-CtrlHD.mkv
    Format : Matroska
    Format version : Version 4 / Version 2
    File size : 9.73 GiB
    Duration : 1h 56mn
    Overall bit rate : 12.0 Mbps
    Movie name : Агенты А.Н.К.Л. / The Man from U.N.C.L.E. (2015)
    Encoded date : UTC 2015-12-07 05:29:52
    Writing application : mkvmerge v8.3.0 ('Over the Horizon') 64bit
    Writing library : libebml v1.3.1 + libmatroska v1.4.2
    Attachements : cover.jpeg
    Video
    ID : 1
    Format : AVC
    Format/Info : Advanced Video Codec
    Format profile : High@L4.1
    Format settings, CABAC : Yes
    Format settings, ReFrames : 12 frames
    Codec ID : V_MPEG4/ISO/AVC
    Duration : 1h 56mn
    Bit rate : 6 790 Kbps
    Width : 1 280 pixels
    Height : 534 pixels
    Display aspect ratio : 2.40:1
    Frame rate mode : Constant
    Frame rate : 23.976 (24000/1001) fps
    Color space : YUV
    Chroma subsampling : 4:2:0
    Bit depth : 8 bits
    Scan type : Progressive
    Bits/(Pixel*Frame) : 0.414
    Stream size : 5.52 GiB (57%)
    Title : Агенты А.Н.К.Л. / The Man from U.N.C.L.E. (2015) BDRip 720p -=CtrlHD=-
    Writing library : x264 core 148 r2638 7599210
    Encoding settings : cabac=1 / ref=12 / deblock=1:-3:-3 / analyse=0x3:0x133 / me=tesa / subme=10 / psy=1 / psy_rd=1.05:0.00 / mixed_ref=1 / me_range=24 / chroma_me=1 / trellis=2 / 8x8dct=1 / cqm=0 / deadzone=21,11 / fast_pskip=0 / chroma_qp_offset=-2 / threads=12 / lookahead_threads=2 / sliced_threads=0 / nr=0 / decimate=0 / interlaced=0 / bluray_compat=0 / constrained_intra=0 / bframes=9 / b_pyramid=2 / b_adapt=2 / b_bias=0 / direct=3 / weightb=1 / open_gop=0 / weightp=2 / keyint=250 / keyint_min=23 / scenecut=40 / intra_refresh=0 / rc_lookahead=60 / rc=crf / mbtree=0 / crf=15.5 / qcomp=0.65 / qpmin=0 / qpmax=69 / qpstep=4 / vbv_maxrate=62500 / vbv_bufsize=78125 / crf_max=0.0 / nal_hrd=none / filler=0 / ip_ratio=1.30 / pb_ratio=1.20 / aq=3:0.70 / zones=959,965,crf=13.5/1360,1372,crf=13.5/3973,4086,crf=14.5/8095,8327,crf=14/10681,10697,crf=13.5/10919,10930,crf=13.5/10975,13932,crf=14/14489,14654,crf=13.5/20995,21040,crf=13.5/21202,21228,crf=13.5/21801,22034,crf=14/25036,25968,crf=16/25969,26145,crf=14/26525,26857,crf=14/27888,28286,crf=16/28287,28307,crf=13.5/28445,32880,crf=16/32881,32974,crf=13.5/33330,33590,crf=16/34815,35832,crf=16/52175,52987,crf=14/54239,54416,crf=13.5/56505,56531,crf=13.5/58479,70669,crf=16/72120,72207,crf=14/72278,72347,crf=14/72826,73062,crf=14/73676,73954,crf=14/73981,74038,crf=14/75279,76174,crf=14/76809,78117,crf=13.5/84346,84401,crf=14/85063,85107,crf=14/85369,85406,crf=14/88177,88233,crf=13.5/88785,89969,crf=13.5/91130,91140,crf=13.5/99430,99475,crf=14/99879,106690,crf=16/113170,113649,crf=16/114253,114391,crf=16/119171,121230,crf=16/122916,123789,crf=16/129237,130971,crf=13.5/135283,135292,crf=13.5/155928,157726,crf=16/157727,160806,crf=16/160807,167424,crf=19
    Language : English
    Default : Yes
    Forced : No
    Audio #1
    ID : 2
    Format : AC-3
    Format/Info : Audio Coding 3
    Mode extension : CM (complete main)
    Format settings, Endianness : Big
    Codec ID : A_AC3
    Duration : 1h 56mn
    Bit rate mode : Constant
    Bit rate : 448 Kbps
    Channel(s) : 6 channels
    Channel positions : Front: L C R, Side: L R, LFE
    Sampling rate : 48.0 KHz
    Frame rate : 31.250 fps (1536 spf)
    Compression mode : Lossy
    Stream size : 373 MiB (4%)
    Title : AC3 5.1 @ 448 kbps - DUB, Blu-ray CEE
    Language : Russian
    Default : Yes
    Forced : No
    Audio #2
    ID : 3
    Format : DTS
    Format/Info : Digital Theater Systems
    Mode : 16
    Format settings, Endianness : Big
    Codec ID : A_DTS
    Duration : 1h 56mn
    Bit rate mode : Constant
    Bit rate : 1 509 Kbps
    Channel(s) : 6 channels
    Channel positions : Front: L C R, Side: L R, LFE
    Sampling rate : 48.0 KHz
    Frame rate : 93.750 fps (512 spf)
    Bit depth : 24 bits
    Compression mode : Lossy
    Stream size : 1.23 GiB (13%)
    Title : DTS 5.1 @ 1536 kbps - AVO, D.Esarev
    Language : Russian
    Default : No
    Forced : No
    Audio #3
    ID : 4
    Format : DTS
    Format/Info : Digital Theater Systems
    Mode : 16
    Format settings, Endianness : Big
    Codec ID : A_DTS
    Duration : 1h 56mn
    Bit rate mode : Constant
    Bit rate : 1 509 Kbps
    Channel(s) : 6 channels
    Channel positions : Front: L C R, Side: L R, LFE
    Sampling rate : 48.0 KHz
    Frame rate : 93.750 fps (512 spf)
    Bit depth : 24 bits
    Compression mode : Lossy
    Stream size : 1.23 GiB (13%)
    Title : DTS 5.1 @ 1536 kbps - AVO, A.Matveev
    Language : Russian
    Default : No
    Forced : No
    Audio #4
    ID : 5
    Format : AC-3
    Format/Info : Audio Coding 3
    Mode extension : CM (complete main)
    Format settings, Endianness : Big
    Codec ID : A_AC3
    Duration : 1h 56mn
    Bit rate mode : Constant
    Bit rate : 192 Kbps
    Channel(s) : 2 channels
    Channel positions : Front: L R
    Sampling rate : 48.0 KHz
    Frame rate : 31.250 fps (1536 spf)
    Compression mode : Lossy
    Stream size : 160 MiB (2%)
    Title : AC3 2.0 @ 192 kbps - DUB, iTunes
    Language : Ukrainian
    Default : No
    Forced : No
    Audio #5
    ID : 6
    Format : DTS
    Format/Info : Digital Theater Systems
    Mode : 16
    Format settings, Endianness : Big
    Codec ID : A_DTS
    Duration : 1h 56mn
    Bit rate mode : Constant
    Bit rate : 1 509 Kbps
    Channel(s) : 6 channels
    Channel positions : Front: L C R, Side: L R, LFE
    Sampling rate : 48.0 KHz
    Frame rate : 93.750 fps (512 spf)
    Bit depth : 24 bits
    Compression mode : Lossy
    Stream size : 1.23 GiB (13%)
    Title : DTS 5.1 @ 1536 kbps
    Language : English
    Default : No
    Forced : No
    Text #1
    ID : 7
    Format : UTF-8
    Codec ID : S_TEXT/UTF8
    Codec ID/Info : UTF-8 Plain Text
    Duration : 1h 50mn
    Bit rate : 8 bps
    Count of elements : 115
    Stream size : 6.78 KiB (0%)
    Title : Forced, iTunes
    Language : Russian
    Default : Yes
    Forced : No
    Text #2
    ID : 8
    Format : UTF-8
    Codec ID : S_TEXT/UTF8
    Codec ID/Info : UTF-8 Plain Text
    Duration : 1h 55mn
    Bit rate : 77 bps
    Count of elements : 1085
    Stream size : 65.4 KiB (0%)
    Title : iTunes
    Language : Russian
    Default : No
    Forced : No
    Text #3
    ID : 9
    Format : UTF-8
    Codec ID : S_TEXT/UTF8
    Codec ID/Info : UTF-8 Plain Text
    Duration : 1h 52mn
    Bit rate : 71 bps
    Count of elements : 1247
    Stream size : 58.8 KiB (0%)
    Title : A.Matveev
    Language : Russian
    Default : No
    Forced : No
    Text #4
    ID : 10
    Format : UTF-8
    Codec ID : S_TEXT/UTF8
    Codec ID/Info : UTF-8 Plain Text
    Duration : 1h 50mn
    Bit rate : 11 bps
    Count of elements : 167
    Stream size : 9.69 KiB (0%)
    Title : Forced, iTunes
    Language : Ukrainian
    Default : No
    Forced : No
    Text #5
    ID : 11
    Format : UTF-8
    Codec ID : S_TEXT/UTF8
    Codec ID/Info : UTF-8 Plain Text
    Duration : 1h 46mn
    Bit rate : 47 bps
    Count of elements : 1108
    Stream size : 36.6 KiB (0%)
    Language : English
    Default : No
    Forced : No
    Text #6
    ID : 12
    Format : UTF-8
    Codec ID : S_TEXT/UTF8
    Codec ID/Info : UTF-8 Plain Text
    Duration : 1h 46mn
    Bit rate : 53 bps
    Count of elements : 1330
    Stream size : 42.0 KiB (0%)
    Title : SDH
    Language : English
    Default : No
    Forced : No
    Menu
    00:00:00.000 : en:00:00:00.000
    00:15:19.085 : en:00:15:19.085
    00:23:11.682 : en:00:23:11.682
    00:32:09.302 : en:00:32:09.302
    00:40:36.059 : en:00:40:36.059
    00:49:07.570 : en:00:49:07.570
    00:59:23.560 : en:00:59:23.560
    01:08:52.837 : en:01:08:52.837
    01:20:28.115 : en:01:20:28.115
    01:29:47.674 : en:01:29:47.674
    01:43:21.362 : en:01:43:21.362
    01:49:23.432 : en:01:49:23.432

    Скриншоты


    Знаете ли вы, что...

    • Генри Кавилл, который сыграл Наполеона Соло в этом фильме, также сыграл супермена в фильме «Человек из стали» (2013). Актер Роберт Вон, который сыграл Наполеона Соло в оригинальном сериале «Агенты А. Н. К. Л.» (1964-1968), сыграл злодея в фильме «Супермен 3» (1983).
    • Более десяти лет понадобилось студии Warner Bros., чтобы снять этот фильм.
    • «U.N.C.L.E.» расшифровывается как «United Network Command for Law and Enforcement».
    • Первоначально, главную роль планировал исполнить Джордж Клуни, однако он выбыл из-за проблем со здоровьем.
    • Джозеф Гордон-Левитт, Райан Гослинг, Александр Скарсгард, Юэн МакГрегор, Роберт Паттинсон, Мэтт Дэймон, Кристиан Бэйл, Майкл Фассбендер, Брэдли Купер, Леонардо Ди Каприо, Юэль Киннаман, Рассел Кроу, Крис Пайн, Райан Рейнольдс и Джон Хэмм значились в кандидатах на главную роль.
    • Джемма Артертон, Элис Ив, Мия Васиковска, Эмилия Кларк, Фелисити Джонс, Тереза Палмер и Сара Гадон прослушивались на роль, которую получила Алисия Викандер.
    • Том Круз был приглашен на роль Наполеона Соло, однако он решил сосредоточиться на фильме «Миссия невыполнима 5». Генри Кавилл, который изначально должен был исполнить другую роль, заменил Тома.
    • Джоэл Эдгертон и Генри Кавилл пробовались на роль, которая досталась Арми Хаммеру. Генри Кавилл впоследствии получил другую роль.
    • Большинство трюков Генри Кавилл и Арми Хаммер выполнили самостоятельно.
    • Стивен Содерберг изначально собирался занять место режиссера, но покинул проект из-за разногласий со студией касательно бюджета и подбора актеров.
    • В фильме Илья Курякин использует модифицированный пистолет «Walther p38». Это отсылка к «Walther p38» из оригинального сериала «Агенты А. Н. К. Л.» (1964-1968). Более того, этот пистолет абсолютно идентичен тому, который японцы использовали в начале 1980-х годов при создании игрушки «Microman», которая трансформировалась из пистолета в робота. Позже дизайн этой игрушки был куплен американской компанией «Hasbro», которая стала продавать эту игрушку уже как трансформера Мегатрона (G1) из мультсериала «Трансформеры» (1984-1987).
    • События фильма разворачиваются через год или два после кубинского ракетного кризиса. Это оригинальная история, которая не рассказывалась в сериале «Агенты А. Н. К. Л.» (1964-1968).
    • Некоторые из костюмов, использованных в фильме, на самом деле являются винтажной одеждой.
    • Источником вдохновения для Гая Ричи стал фильм «Буч Кэссиди и Сандэнс Кид» (1969).
    • Съемки фильма проходили в самом длинном звуковом киносъемочном павильоне в Лондоне.
    • Все сцены с участием Хью Гранта были отсняты за три недели.

    Ошибки в фильме

    • Илья надевает Габи кольцо на левую руку, а невеста советского архитектора никак не может носить обручальное кольцо на этой руке.
    • На приеме Виктории Винчигуэрры Наполеон при «случайном» объятии снимает с нее толстую золотую цепь, как показано во флэшбэке в их разговоре. Однако чуть ранее в фильме видно, что после объятия цепь еще оставалась на Виктории.
    Скачать .torrent

    Скачать торрент-файл бесплатно и на максимальной скорости!

    Как скачивать? · Что такое торрент? · Рейтинг и ограничения

    !ВНИМАНИЕ!
    Сайт не распространяет и не хранит электронные версии произведений, а занимается лишь лишь предоставлением доступа к создаваемому пользователями каталогу ссылок на торрент-файлы, которые содержат только списки хеш-сумм, убедительная просьба с жалобами обращаться напрямую к пользователю. Файлы для обмена на трекере предоставлены пользователями сайта, и администрация не несёт ответственности за их содержание. Просьба не заливать файлы, защищенные авторскими правами, а также файлы нелегального содержания!


    _________________
    [Профиль] [ЛС]
    Показать сообщения:    
    Ответить на тему

    Текущее время: Сегодня, в 15:56

    Часовой пояс: GMT + 2



    Вы не можете начинать темы
    Вы не можете отвечать на сообщения
    Вы не можете редактировать свои сообщения
    Вы не можете удалять свои сообщения
    Вы не можете голосовать в опросах
    Вы не можете прикреплять файлы к сообщениям
    Вы не можете скачивать файлы