Register  ·  Log in
Forgot password?

  • Крид: Наследие Рокки / Creed (Райан Куглер / Ryan Coogler) [2015, США, Драма, спорт, DVDScreener] VO (VANO)

    Reply to topic
    Author Message


    Post 22-Dec-2015 08:02



    Крид: Наследие Рокки / Creed
    «Your legacy is more than a name»
    Страна: США
    Жанр: Драма, спорт
    Год выпуска: 2015
    Продолжительность: 02:03:15-Перевод: Одноголосый закадровый (VANO)
    Cубтитры: нет-Режиссер: Райан Куглер / Ryan Coogler-В ролях: Майкл Б. Джордан, Сильвестр Сталлоне, Тесса Томпсон, Филисия Рашад, Андре Уорд, Тони Белью, Ричи Костер, Джейкоб ’Стич’ Дюран, Грэм МакТавиш-Описание: В центре внимания сын Аполло Крида — первого серьезного соперника Рокки Бальбоа на ринге, впоследствии ставшего лучшим другом героя. Талант отца в какой-то момент проявляется и в Криде-младшем, и юноша отправляется на поиски наставника, коим для него в итоге становится постаревший Рокки, тоже не слишком жаждущий возвращаться к старым делам. Даже в качестве тренера.- -Качество видео: DVDScreener
    Формат видео: AVI
    Видео: 720x288 (2.50:1), XviD build, 30.000 fps, 1598 Kbps
    Аудио: 48.0 KHz, AC3, 2 ch, 256 Kb/s--


    Complete name : CREED_2015 DVDScr.avi
    Format : AVI
    Format/Info : Audio Video Interleave
    File size : 1.61 GiB
    Duration : 2h 3mn
    Overall bit rate : 1 867 Kbps
    Writing application : VirtualDubMod (build 2550/release)
    Writing library : VirtualDubMod build 2550/release
    Video #0
    ID : 0
    Format : MPEG-4 Visual
    Format profile : Advanced Simple@L5
    Format settings, BVOP : 2
    Format settings, QPel : Yes
    Format settings, GMC : No warppoints
    Format settings, Matrix : Default (H.263)
    Muxing mode : Packed bitstream
    Codec ID : XVID
    Codec ID/Hint : XviD
    Duration : 2h 3mn
    Bit rate : 1 598 Kbps
    Width : 720 pixels
    Height : 288 pixels
    Display aspect ratio : 2.500
    Frame rate : 30.000 fps
    Original frame rate : 29.970 fps
    Color space : YUV
    Chroma subsampling : 4:2:0
    Bit depth : 8 bits
    Scan type : Progressive
    Compression mode : Lossy
    Bits/(Pixel*Frame) : 0.257
    Stream size : 1.38 GiB (86%)
    Writing library : XviD 1.2.1 (UTC 2008-12-04)
    Audio #1
    ID : 1
    Format : AC-3
    Format/Info : Audio Coding 3
    Mode extension : CM (complete main)
    Format settings, Endianness : Big
    Codec ID : 2000
    Duration : 2h 3mn
    Bit rate mode : Constant
    Bit rate : 256 Kbps
    Channel(s) : 2 channels
    Channel positions : Front: L R
    Sampling rate : 48.0 KHz
    Bit depth : 16 bits
    Compression mode : Lossy
    Stream size : 225 MiB (14%)
    Alignment : Split accross interleaves
    Interleave, duration : 33 ms (1.00 video frame)
    Interleave, preload duration : 500 ms

    Скриншот c названием фильма


    Download .torrent

    Download free and at maximum speed!

    How to Download? · What is a torrent? · Ratings and Limitations

    The site does not extend and does not store electronic(digital) versions of products, and only gives access to a reference catalogue created by users on torrent-files which contain only lists of the hash-sums, the earnest entreaty, with complaints(abuse) to access directly to the user. Files for an exchange on tracker are given by users of a site, and the administration does not bear the responsibility for their maintenance. The request to not fill in the files protected by copyrights, and also files of the illegal maintenance!

    [Profile] [PM]
    Display posts from previous:    
    Reply to topic

    The time now is: Today 06:37

    All times are GMT + 3 Hours

    You cannot post new topics in this forum
    You cannot reply to topics in this forum
    You cannot edit your posts in this forum
    You cannot delete your posts in this forum
    You cannot vote in polls in this forum
    You cannot attach files in this forum
    You cannot download files in this forum