BitTorrentTracker PerecTracker.org
BitTorrentTracker PerecTracker.org
    
Регистрация  ·  Вход
 
 · 
Забыли пароль?

  • Новейший завет / Le tout nouveau testament (Жако ван Дормель / Jaco van Dormael ) [2015, Бельгия, Франция, Люксембург, Комедия, WEB-DL, HD (720p)] DUB

    Ответить на тему
     
    Автор Сообщение

    Flirldrerve

    Создавать темы 22-Дек-2015 02:55

           

    [Цитировать]

    Новейший завет / Le tout nouveau testament
    «Бог существует! И он живет... в Брюсселе»
    7.536 / 10 7.20 / 10
    -Год выпуска: 2015
    Страна: Бельгия, Франция, Люксембург
    Жанр: Комедия
    Продолжительность: 01:54:30
    Перевод: Дублированный (iTunes)
    Оригинальная аудиодорожка: Нет
    Cубтитры: Нет
    Режиссёр: Жако ван Дормель
    Сценарий: Томас Гюнциг, Жако ван Дормель
    Продюсер: Оливье Росен, Жако ван Дормель, Жан-Ив Асселин
    Оператор: Кристоф Бокарн
    Композитор: Ан Пьерле
    Художник: Caroline Koener, Паскаль Вийан
    Монтаж: Эрве де Люз
    В ролях: Бенуа Пульворд, Катрин Денёв, Франсуа Дамиенс, Иоланда Моро, Пили Груан, Лаура Верлинден, Серж Ларивье, Дидье Де Нек, Марко Лоренцини, Ромен Желен
    Бюджет: €8 555 500
    Сборы в мире: $91 408
    Сборы в России: $324 883
    Мировая премьера: 17 мая 2015
    Премьера (РФ): 12 ноября 2015, «Премиум Фильм»
    Описание: Да, Бог существует. Но он совсем не такой, каким мы его представляли. Он живет в Брюсселе, и у него есть не только сын, но и дочь. Она сбегает из дома и отправляется в наш мир искать приключения и испытывать терпение своего отца на прочность. Надолго ли его хватит?..-Качество исходника: WEB-DL 720p (NNMClub)
    Качество: WEB-DL
    Тип: HD (720p)
    Контейнер: M4V
    Видео: H.264, 1280x538, 2.40:1, 3 987 Kbps, 24.000 fps
    Аудио 1: Русский/Дублированный (iTunes), AAC / 2.0 / 157 Kbps / 48.0 KHz
    Аудио 2: Русский/Дублированный (iTunes), AC-3 / 5.1 / 384 Kbps / 48.0 KHz
    -

    iTunes Meta Tags

    Sort Name: tout nouveau testament
    XID: Apple:vendor_id:2015-840470
    contentID: 1048592479
    Screenwriters: Томас Гюнциг, Жако ван Дормель
    Producers: Оливье Росен, Жако ван Дормель, Жан-Ив Асселин
    Director: Жако ван Дормель
    Cast: Бенуа Пульворд, Катрин Денёв, Франсуа Дамиенс, Иоланда Моро, Пили Груан, Лаура Верлинден, Серж Ларивье, Дидье Де Нек, Марко Лоренцини, Ромен Желен
    Studio: Le Pacte
    Rating: 60
    Long Description: Да, Бог существует. Но он совсем не такой, каким мы его представляли. Он живет в Брюсселе, и у него есть не только сын, но и дочь. Она сбегает из дома и отправляется в наш мир искать приключения и испытывать терпение своего отца на прочность. Надолго ли его хватит?..
    Description: Да, Бог существует. Но он совсем не такой, каким мы его представляли. Он живет в Брюсселе, и у него есть не только сын, но и дочь. Она сбегает из дома и отправляется в наш мир искать приключения и испытывать терпение своего отца на прочность. Надолго ли его хватит?..
    Release Date: 2015-05-17T08:00:00Z
    Genre: Comédies
    Artist: Jaco Van Dormael
    Name: Le tout nouveau testament

    MediaInfo

    General
    Complete name : /Users/imac/HandBrake/Noviy.Zavet.WEB-DL.720p.m4v
    Format : MPEG-4
    Codec ID : M4V
    File size : 3.63 GiB
    Duration : 1h 54mn
    Overall bit rate mode : Variable
    Overall bit rate : 4 534 Kbps
    Movie name : Le tout nouveau testament
    Performer : Jaco Van Dormael
    Director : Жако ван Дормель
    Actor : Бенуа Пульворд / Катрин Денёв / Франсуа Дамиенс / Иоланда Моро / Пили Груан / Лаура Верлинден / Серж Ларивье / Дидье Де Нек / Марко Лоренцини / Ромен Желен
    Screenplay by : Томас Гюнциг / Жако ван Дормель
    Producer : Оливье Росен / Жако ван Дормель / Жан-Ив Асселин
    Production studio : Le Pacte
    Genre : Comédies
    ContentType : Short Film
    Description : Да, Бог существует. Но он совсем не такой, каким мы его представляли. Он живет в Брюсселе, и у него есть не только сын, но и дочь. Она сбегает из дома и отправляется в наш мир искать приключения и испытывать терпение своего отца на прочность. Надолго ли его хватит?..
    Recorded date : UTC 2015-05-17 08:00:00
    Encoded date : UTC 2015-12-21 21:34:22
    Tagged date : UTC 2015-12-21 21:38:17
    Cover : Yes
    Rating : None
    Title/Sort : tout nouveau testament
    LongDescription : Да, Бог существует. Но он совсем не такой, каким мы его представляли. Он живет в Брюсселе, и у него есть не только сын, но и дочь. Она сбегает из дома и отправляется в наш мир искать приключения и испытывать терпение своего отца на прочность. Надолго ли его хватит?..
    HDVideo : Yes
    AppleStoreCatalogID : 1048592479
    Vendor : Apple:vendor_id:2015-840470
    ContentRating : fr-movie|Tout public|000|
    Video #1
    ID : 1
    Format : AVC
    Format/Info : Advanced Video Codec
    Format profile : Main@L3.1
    Format settings, CABAC : No
    Format settings, ReFrames : 2 frames
    Format settings, GOP : M=2, N=90
    Codec ID : avc1
    Codec ID/Info : Advanced Video Coding
    Duration : 1h 54mn
    Bit rate : 3 987 Kbps
    Width : 1 280 pixels
    Height : 538 pixels
    Display aspect ratio : 2.40:1
    Frame rate mode : Variable
    Frame rate : 24.000 fps
    Minimum frame rate : 23.810 fps
    Maximum frame rate : 24.390 fps
    Color space : YUV
    Chroma subsampling : 4:2:0
    Bit depth : 8 bits
    Scan type : Progressive
    Bits/(Pixel*Frame) : 0.241
    Stream size : 3.19 GiB (88%)
    Title : Main Program
    Language : French
    Encoded date : UTC 2015-12-21 21:34:22
    Tagged date : UTC 2015-12-21 21:35:17
    Color range : Limited
    Color primaries : BT.709
    Transfer characteristics : BT.709
    Matrix coefficients : BT.709
    Menus : 4,5
    Video #2
    ID : 5
    Format : JPEG
    Codec ID : jpeg
    Duration : 1h 54mn
    Bit rate mode : Variable
    Bit rate : 918 bps
    Width : 640 pixels
    Height : 269 pixels
    Display aspect ratio : 2.40:1
    Frame rate mode : Variable
    Frame rate : 0.003 fps
    Minimum frame rate : 0.002 fps
    Maximum frame rate : 0.003 fps
    Color space : YUV
    Chroma subsampling : 4:2:0
    Bit depth : 8 bits
    Compression mode : Lossy
    Bits/(Pixel*Frame) : 1.777
    Stream size : 709 KiB (0%)
    Title : Chapter Images
    Language : French
    Default : No
    Encoded date : UTC 2015-12-21 21:35:21
    Tagged date : UTC 2015-12-21 21:35:22
    Menu For : 1
    Audio #1
    ID : 2
    Format : AAC
    Format/Info : Advanced Audio Codec
    Format profile : LC
    Codec ID : 40
    Duration : 1h 54mn
    Bit rate mode : Variable
    Bit rate : 157 Kbps
    Maximum bit rate : 238 Kbps
    Channel(s) : 2 channels
    Channel positions : Front: L R
    Sampling rate : 48.0 KHz
    Frame rate : 46.875 fps (1024 spf)
    Compression mode : Lossy
    Stream size : 128 MiB (3%)
    Title : Russian Stereo
    Language : Russian
    Default : Yes
    Alternate group : 1
    Encoded date : UTC 2015-12-21 21:34:22
    Tagged date : UTC 2015-12-21 21:34:55
    Fallback From : 3
    Audio #2
    ID : 3
    Format : AC-3
    Format/Info : Audio Coding 3
    Mode extension : CM (complete main)
    Format settings, Endianness : Big
    Codec ID : ac-3
    Duration : 1h 54mn
    Bit rate mode : Constant
    Bit rate : 384 Kbps
    Channel(s) : 6 channels
    Channel positions : Front: L C R, Side: L R, LFE
    Sampling rate : 48.0 KHz
    Frame rate : 31.250 fps (1536 spf)
    Bit depth : 16 bits
    Compression mode : Lossy
    Stream size : 315 MiB (8%)
    Title : Russian DD 5.1
    Language : Russian
    Default : Inherited From: 2
    Alternate group : 1
    Encoded date : UTC 2015-12-21 21:34:22
    Tagged date : UTC 2015-12-21 21:34:55
    Fallback To : 2
    Menu #1
    00:00:00.000 : Глава 1
    00:06:35.000 : Глава 2
    00:11:39.000 : Глава 3
    00:16:47.000 : Глава 4
    00:22:08.000 : Глава 5
    00:27:13.000 : Глава 6
    00:33:02.000 : Глава 7
    00:40:46.000 : Глава 8
    00:46:26.000 : Глава 9
    00:52:06.000 : Глава 10
    00:58:21.000 : Глава 11
    01:03:58.000 : Глава 12
    01:09:46.000 : Глава 13
    01:14:47.000 : Глава 14
    01:20:23.000 : Глава 15
    01:27:01.000 : Глава 16
    01:32:39.000 : Глава 17
    01:38:00.000 : Глава 18
    01:43:31.000 : Глава 19
    Menu #2
    ID : 4
    Codec ID : text
    Duration : 1h 54mn
    Language : French
    Encoded date : UTC 2015-12-21 21:35:17
    Tagged date : UTC 2015-12-21 21:35:17
    Menu For : 1
    00:00:00.000 : Глава 1
    00:06:35.000 : Глава 2
    00:11:39.000 : Глава 3
    00:16:47.000 : Глава 4
    00:22:08.000 : Глава 5
    00:27:13.000 : Глава 6
    00:33:02.000 : Глава 7
    00:40:46.000 : Глава 8
    00:46:26.000 : Глава 9
    00:52:06.000 : Глава 10
    00:58:21.000 : Глава 11
    01:03:58.000 : Глава 12
    01:09:46.000 : Глава 13
    01:14:47.000 : Глава 14
    01:20:23.000 : Глава 15
    01:27:01.000 : Глава 16
    01:32:39.000 : Глава 17
    01:38:00.000 : Глава 18
    01:43:31.000 : Глава 19
    Bit rate mode : VBR

    Скриншоты

    -

    Релиз подготовлен для просмотра на Apple TV, iPad, iPhone, iPod Touch.
    Для просмотра данного релиза на компьютере с ОС Windows рекомендуется использовать VLC media player
    Скачать .torrent

    Скачать торрент-файл бесплатно и на максимальной скорости!

    Как скачивать? · Что такое торрент? · Рейтинг и ограничения

    !ВНИМАНИЕ!
    Сайт не распространяет и не хранит электронные версии произведений, а занимается лишь лишь предоставлением доступа к создаваемому пользователями каталогу ссылок на торрент-файлы, которые содержат только списки хеш-сумм, убедительная просьба с жалобами обращаться напрямую к пользователю. Файлы для обмена на трекере предоставлены пользователями сайта, и администрация не несёт ответственности за их содержание. Просьба не заливать файлы, защищенные авторскими правами, а также файлы нелегального содержания!


    _________________
    [Профиль] [ЛС]
    Показать сообщения:    
    Ответить на тему

    Текущее время: Сегодня, в 14:31

    Часовой пояс: GMT + 2



    Вы не можете начинать темы
    Вы не можете отвечать на сообщения
    Вы не можете редактировать свои сообщения
    Вы не можете удалять свои сообщения
    Вы не можете голосовать в опросах
    Вы не можете прикреплять файлы к сообщениям
    Вы не можете скачивать файлы