BitTorrentTracker PerecTracker.org
BitTorrentTracker PerecTracker.org
    
Регистрация  ·  Вход
 
 · 
Забыли пароль?

  • Полный контроль / Unterm Radar (Эльмар Фишер / Elmar Fischer) [2015, Германия, триллер, драма, HDTVRip] VO (maksciganov)

    Ответить на тему
     
    Автор Сообщение

    Light

    Создавать темы 22-Дек-2015 02:55

           

    [Цитировать]

    Полный контроль / Unterm RadarСтрана: Германия/ Enigma Film, Westdeutscher Rundfunk (WDR) .
    Жанр: триллер, драма
    Год выпуска: 2015
    Продолжительность: 01:27:11
    Перевод: Одноголосый (закадровый) [maksciganov] по тексту kon2011
    Cубтитры: нет
    Режиссёр: Эльмар Фишер / Elmar Fischer
    В ролях: Кристиана Пауль, Хайно Ферх, Фабиан Хинрихс, Инка Фридрих, Маттиас Мачке, Ханс Вернер Майер, Линн Ройссе, Лара Мэндоки, Нюрсель Кёсе, Мирко Ланг
    Описание: Берлинская полиция получает от своих лондонских коллег важную информацию: Исламисты готовят в столице Германии крупный теракт. Берлин взят под плотный полицейский контроль, но всё же избежать теракта не удалось - в центре города террорист-смертник взорвал пассажирский автобус. Начинаются отчаянные поиски подпольной терроргруппы. Руководство приказывает использовать все средства ...

    Качество видео: HDTVRip
    Формат видео: AVI
    Видео: 720x400, 25 fps, DivX ~2196 kbps avg, 0.305 bit/pixel
    Аудио - : 48 kHz, AC3 Dolby Digital, 2/0 (L,R) ch, ~192 kbps kbps

    MediaInfo

    Complete name :\Unterm Radar_2015 HD_VO_maksciganov.avi
    Format : AVI
    Format/Info : Audio Video Interleave
    File size : 1.46 GiB
    Duration : 1h 27mn
    Overall bit rate : 2 398 Kbps
    Writing application : VirtualDubMod 1.5.10.3 | www.virtualdub-fr.org || (build 2550/release)
    Writing library : VirtualDubMod build 2550/release
    Video #0
    ID : 0
    Format : MPEG-4 Visual
    Format profile : Advanced Simple@L5
    Format settings, BVOP : 1
    Format settings, QPel : No
    Format settings, GMC : No warppoints
    Format settings, Matrix : Default (MPEG)
    Codec ID : DX50
    Codec ID/Hint : DivX 5
    Duration : 1h 27mn
    Bit rate : 2 196 Kbps
    Width : 720 pixels
    Height : 400 pixels
    Display aspect ratio : 16:9
    Frame rate : 25.000 fps
    Color space : YUV
    Chroma subsampling : 4:2:0
    Bit depth : 8 bits
    Scan type : Progressive
    Compression mode : Lossy
    Bits/(Pixel*Frame) : 0.305
    Stream size : 1.34 GiB (92%)
    Writing library : XviD 1.2.1 (UTC 2008-12-04)
    Audio #1
    ID : 1
    Format : AC-3
    Format/Info : Audio Coding 3
    Mode extension : CM (complete main)
    Format settings, Endianness : Big
    Codec ID : 2000
    Duration : 1h 27mn
    Bit rate mode : Constant
    Bit rate : 192 Kbps
    Channel(s) : 2 channels
    Channel positions : Front: L R
    Sampling rate : 48.0 KHz
    Bit depth : 16 bits
    Compression mode : Lossy
    Stream size : 120 MiB (8%)
    Alignment : Split accross interleaves
    Interleave, duration : 40 ms (1.00 video frame)
    Interleave, preload duration : 500 ms

    Скриншот c названием фильма

    Скриншоты

    Скачать .torrent

    Скачать торрент-файл бесплатно и на максимальной скорости!

    Как скачивать? · Что такое торрент? · Рейтинг и ограничения

    !ВНИМАНИЕ!
    Сайт не распространяет и не хранит электронные версии произведений, а занимается лишь лишь предоставлением доступа к создаваемому пользователями каталогу ссылок на торрент-файлы, которые содержат только списки хеш-сумм, убедительная просьба с жалобами обращаться напрямую к пользователю. Файлы для обмена на трекере предоставлены пользователями сайта, и администрация не несёт ответственности за их содержание. Просьба не заливать файлы, защищенные авторскими правами, а также файлы нелегального содержания!


    _________________
    [Профиль] [ЛС]
    Показать сообщения:    
    Ответить на тему

    Текущее время: Сегодня, в 18:01

    Часовой пояс: GMT + 2



    Вы не можете начинать темы
    Вы не можете отвечать на сообщения
    Вы не можете редактировать свои сообщения
    Вы не можете удалять свои сообщения
    Вы не можете голосовать в опросах
    Вы не можете прикреплять файлы к сообщениям
    Вы не можете скачивать файлы