BitTorrentTracker PerecTracker.org
BitTorrentTracker PerecTracker.org
    
Регистрация  ·  Вход
 
 · 
Забыли пароль?

  • Игра Престолов / Game Of Thrones / Сезоны: 1-6 / Серии: 1-60 из 60 (Брайан Кирк, Даниэль Минахан, Алан Тейлор) [2011-2016, Фэнтези, Триллер, WEB-DLRip/ BDrip-AVC 576p] MVO (LostFilm) + DUB (РенТВ / Amedia) + Original + Subs (Rus, Eng)

    Ответить на тему
     
    Автор Сообщение

    rechyn

    Создавать темы 22-Дек-2015 00:32

           

    [Цитировать]

    Год выпуска: 2011-2016 / Жанр: Фэнтези, драма
    Страна: США | HBO
    Продолжительность: ~ 59 мин
    Перевод: Профессиональный (многоголосый, закадровый) / LostFilm /
    Перевод: Профессиональный (дублированный) / РенТВ / Amedia (Kravec)
    Режиссер: Тимоти Ван Паттен, Брайан Кирк, Даниэль Минахан, Алан Тейлор

    В ролях:
    Шон Бин (лорд Эддард Старк), Питер Динклэйдж (Тирион Ланнистер), Марк Эдди (Роберт Баратеон), Николай Костер-Вальдау (Джейме Ланнистер), Мишель Фэйрли (Кейтилин Старк), Лена Хиди (Серсея Ланнистер), Эмилия Кларк (Дейенерис Таргариен), Иэн Глен (сир Джорах Мормонт), Эйдан Гиллен (Петир Бейлиш)

    Описание:
    К концу подходит время благоденствия, и лето, длившееся несколько десятилетий, угасает. Вокруг средоточия власти Семи королевств, Железного трона, зреет заговор, и в это непростое время король решает искать поддержки у друга юности Эддарда Старка (Шон Бин). В мире, где все — от короля до наемника — рвутся к власти, плетут интриги и готовы вонзить нож в спину, есть место и благородству, состраданию и любви. Между тем, никто не замечает пробуждение тьмы из легенд далеко на Севере — и лишь Стена защищает живых к югу от нее. Между древней ледяной Стеной и пламенем навсегда ушедших из мира драконов разворачивается «Игра престолов» — долгожданная экранизация культовой саги Джорджа Р. Р. Мартина «Песнь льда и пламени».

    Релиз


    Качество: BDRip-AVC 1-5 сезон, WEB-DLRip-AVC 6 сезон
    Формат: MKV | Видео кодек: X264 | Аудио кодек: AC3
    Видео: 1024x576 / 16:9 / 2002 kbps / 23.976 fps / 0.142 bit/pixel
    Аудио #1: (48,0 КГц, AC3 Dolby Digital, 5.1 ch, 384 Кбит/с) / Лостфильм
    Аудио #2: (48,0 КГц, AC3 Dolby Digital, 2.0 ch, 192 Кбит/с) / Дублированный
    Аудио #3: (48,0 КГц, AC3 Dolby Digital, 5.1 ch, 384 Кбит/с) / Оригинал (английский)
    Субтитры: Русские (форсированные, полные 7kingdoms), английские (полные)



    Все раздачи сериалаоформление: AngelOfTrue, >^Мурлыська^<
    -

    Содержание

    рипы, работа со звуком и субтитрами • qqss44
    За звук и субтитры спасибо - lostrator, Nez
    1 сезон:
    01. Зима близко / Winter Is Coming
    02. Королевский тракт / The Kingsroad
    03. Лорд Сноу / Lord Snow
    04. Калеки, бастарды и сломанные вещи / Cripples, Bastards, and Broken Things
    05. Волк и лев / The Wolf and the Lion
    06. Золотая корона / A Golden Crown
    07. Побеждай или умри / You Win or You Die
    08. Остриё / The Pointy End
    09. Бейелор / Baelor
    10. Пламя и кровь / Fire and Blood
    2 сезон:
    01. Север помнит / The North Remembers
    02. Ночные земли / The Night Lands
    03. Что мертво, умереть не может / What Is Dead May Never Die
    04. Костяной Сад / Garden of Bones
    05. Призрак Харренхола / The Ghost of Harrenhal
    06. Старые Боги и Новые / The Old Gods and the New
    07. Человек без Чести / A Man Without Honor
    08. Принц Винтерфелла / The Prince of Winterfell
    09. Черноводная / Blackwater
    10. Валар Моргулис / Valar Morghulis
    3 сезон:
    01. Валар Дохаэрис / Valar Dohaeris
    02. Черные крылья, черные вести / Dark Wings, Dark Words
    03. Стезя страданий / Walk of Punishment
    04. Теперь его дозор окончен / And Now His Watch Is Ended
    05. Поцелованная огнем / Kissed by Fire
    06. Подъем / The Climb
    07. Медведь и прекрасная дева / The Bear and the Maiden Fair
    08. Младшие сыны / Second Sons
    09. Рейны из Кастамере / The Rains of Castamere
    10. Миса / Mhysa
    4 сезон:
    01. Два меча / Two Swords
    02. Лев и Роза / The Lion and the Rose
    03. Разрушительница оков / Breaker of Chains
    04. Верный клятве / Oathkeeper
    05. Первый этого имени / First of His Name
    06. Законы богов и людей / The Laws of Gods and Men
    07. Пересмешник / Mockingbird
    08. Гора и Змей / The Mountain and the Viper 1 июня 2014
    09. Дозорные на Стене / The Watchers of the Wall
    10. Дети / The Children
    5 сезон:
    01. Грядущие войны / The Wars to Come
    02. Чёрно-белый дом / The House of Black and White
    03. Его Воробейшество / High Sparrow
    04. Сыны Гарпии / The Sons Of The Harpy
    05. Убей мальчика / Kill the Boy
    06. Непреклонные, несгибаемые, несдающиеся / Unbowed, Unbent, Unbroken
    07. Дар / The Gift
    08. Суровый дом / Hardhome
    09. Танец драконов / The Dance of Dragons
    10. Милость Матери / Mother's Mercy
    6 сезон:
    01. Красная женщина / The Red Woman
    02. Дом / Home
    03. Нарушивший клятву / Oathbreaker
    04. Книга Неведомого / Book of the Stranger
    05. Дверь / The Door
    06. Кровь моей крови / Blood of My Blood
    07. Сломленный человек / The Broken Man
    08. Никто / No One
    09. Битва бастардов / Battle of the Bastards
    10. Милость Матери / Mother's Mercy
    --

    MI

    [code]
    Общее
    Уникальный идентификатор : 191021808245058027644437032522586079937 (0x8FB576491B3E177CA95DCECF9C7942C1)
    Формат : Matroska
    Версия формата : Version 2
    Размер файла : 1,25 Гбайт
    Продолжительность : 1 ч. 0 м.
    Общий поток : 2965 Кбит/сек
    Дата кодирования : UTC 2015-12-20 01:51:54
    Программа кодирования : mkvmerge v7.9.0 ('Birds') 64bit
    Библиотека кодирования : libebml v1.3.1 + libmatroska v1.4.2
    DURATION : 00:58:51.027000000
    NUMBER_OF_FRAMES : 661
    NUMBER_OF_BYTES : 18127
    _STATISTICS_WRITING_APP : mkvmerge v7.9.0 ('Birds') 64bit
    _STATISTICS_WRITING_DATE_UTC : 2015-12-20 01:51:54
    _STATISTICS_TAGS : BPS DURATION NUMBER_OF_FRAMES NUMBER_OF_BYTES
    Видео
    Идентификатор : 1
    Формат : AVC
    Формат/Информация : Advanced Video Codec
    Профиль формата : High@L4.1
    Параметр CABAC формата : Да
    Параметр ReFrames формата : 5 кадров
    Идентификатор кодека : V_MPEG4/ISO/AVC
    Продолжительность : 1 ч. 0 м.
    Битрейт : 2002 Кбит/сек
    Ширина : 1024 пикселя
    Высота : 576 пикселей
    Соотношение сторон : 16:9
    Режим частоты кадров : Постоянный
    Частота кадров : 23,976 кадра/сек
    Цветовое пространство : YUV
    Субдискретизация насыщенности : 4:2:0
    Битовая глубина : 8 бит
    Тип развёртки : Прогрессивная
    Бит/(Пиксели*Кадры) : 0.142
    Размер потока : 838 Мбайт (66%)
    Библиотека кодирования : x264 core 130 r2273 b3065e6
    Настройки программы : cabac=1 / ref=5 / deblock=1:-1:-1 / analyse=0x3:0x133 / me=umh / subme=11 / psy=1 / psy_rd=1.00:0.20 / mixed_ref=1 / me_range=24 / chroma_me=1 / trellis=2 / 8x8dct=1 / cqm=0 / deadzone=21,11 / fast_pskip=0 / chroma_qp_offset=-3 / threads=12 / lookahead_threads=1 / sliced_threads=0 / nr=0 / decimate=0 / interlaced=0 / bluray_compat=0 / constrained_intra=0 / bframes=5 / b_pyramid=2 / b_adapt=2 / b_bias=0 / direct=3 / weightb=1 / open_gop=0 / weightp=2 / keyint=240 / keyint_min=23 / scenecut=40 / intra_refresh=0 / rc=2pass / mbtree=0 / bitrate=2002 / ratetol=1.0 / qcomp=0.60 / qpmin=0 / qpmax=69 / qpstep=4 / cplxblur=20.0 / qblur=0.5 / ip_ratio=1.40 / pb_ratio=1.30 / aq=1:1.00
    Язык : English
    Default : Да
    Forced : Нет
    DURATION : 01:00:13.282000000
    NUMBER_OF_FRAMES : 86632
    NUMBER_OF_BYTES : 904563819
    _STATISTICS_WRITING_APP : mkvmerge v7.9.0 ('Birds') 64bit
    _STATISTICS_WRITING_DATE_UTC : 2015-12-20 01:51:54
    _STATISTICS_TAGS : BPS DURATION NUMBER_OF_FRAMES NUMBER_OF_BYTES
    Аудио #1
    Идентификатор : 2
    Формат : AC-3
    Формат/Информация : Audio Coding 3
    Расширение режима : CM (complete main)
    Параметр Endianness формата : Big
    Идентификатор кодека : A_AC3
    Продолжительность : 1 ч. 0 м.
    Вид битрейта : Постоянный
    Битрейт : 384 Кбит/сек
    Каналы : 6 каналов
    Расположение каналов : Front: L C R, Side: L R, LFE
    Частота : 48,0 КГц
    Метод сжатия : С потерями
    Размер потока : 165 Мбайт (13%)
    Заголовок : LostFilm
    Язык : Russian
    Default : Да
    Forced : Нет
    Аудио #2
    Идентификатор : 3
    Формат : AC-3
    Формат/Информация : Audio Coding 3
    Расширение режима : CM (complete main)
    Параметр Endianness формата : Big
    Идентификатор кодека : A_AC3
    Продолжительность : 1 ч. 0 м.
    Вид битрейта : Постоянный
    Битрейт : 192 Кбит/сек
    Каналы : 2 канала
    Расположение каналов : Front: L R
    Частота : 48,0 КГц
    Метод сжатия : С потерями
    Размер потока : 82,7 Мбайт (6%)
    Заголовок : Kravec-Amedia
    Язык : Russian
    Default : Нет
    Forced : Нет
    Аудио #3
    Идентификатор : 4
    Формат : AC-3
    Формат/Информация : Audio Coding 3
    Расширение режима : CM (complete main)
    Параметр Endianness формата : Big
    Идентификатор кодека : A_AC3
    Продолжительность : 1 ч. 0 м.
    Вид битрейта : Постоянный
    Битрейт : 384 Кбит/сек
    Каналы : 6 каналов
    Расположение каналов : Front: L C R, Side: L R, LFE
    Частота : 48,0 КГц
    Метод сжатия : С потерями
    Размер потока : 165 Мбайт (13%)
    Заголовок : Original
    Язык : English
    Default : Нет
    Forced : Нет
    Текст #1
    Идентификатор : 5
    Формат : ASS
    Идентификатор кодека : S_TEXT/ASS
    Идентификатор кодека/Информация : Advanced Sub Station Alpha
    Метод сжатия : Без потерь
    Заголовок : Forced
    Язык : Russian
    Default : Нет
    Forced : Нет
    Текст #2
    Идентификатор : 6
    Формат : UTF-8
    Идентификатор кодека : S_TEXT/UTF8
    Идентификатор кодека/Информация : UTF-8 Plain Text
    Заголовок : 7kingdoms
    Язык : Russian
    Default : Нет
    Forced : Нет
    Текст #3
    Идентификатор : 7
    Формат : UTF-8
    Идентификатор кодека : S_TEXT/UTF8
    Идентификатор кодека/Информация : UTF-8 Plain Text
    Заголовок : Original
    Язык : English
    Default : Нет
    Forced : Нет
    --

    Скриншоты

    -
    Скачать .torrent

    Скачать торрент-файл бесплатно и на максимальной скорости!

    Как скачивать? · Что такое торрент? · Рейтинг и ограничения

    !ВНИМАНИЕ!
    Сайт не распространяет и не хранит электронные версии произведений, а занимается лишь лишь предоставлением доступа к создаваемому пользователями каталогу ссылок на торрент-файлы, которые содержат только списки хеш-сумм, убедительная просьба с жалобами обращаться напрямую к пользователю. Файлы для обмена на трекере предоставлены пользователями сайта, и администрация не несёт ответственности за их содержание. Просьба не заливать файлы, защищенные авторскими правами, а также файлы нелегального содержания!


    _________________
    [Профиль] [ЛС]
    Показать сообщения:    
    Ответить на тему

    Текущее время: Сегодня, в 10:07

    Часовой пояс: GMT + 2



    Вы не можете начинать темы
    Вы не можете отвечать на сообщения
    Вы не можете редактировать свои сообщения
    Вы не можете удалять свои сообщения
    Вы не можете голосовать в опросах
    Вы не можете прикреплять файлы к сообщениям
    Вы не можете скачивать файлы