BitTorrentTracker PerecTracker.org
BitTorrentTracker PerecTracker.org
    
Регистрация  ·  Вход
 
 · 
Забыли пароль?

  • Испанец / Сезон: 1 / Серии: 1-4 из 4 (Анатолий Артамонов) [2015, Криминал, драма, HDTVRip]

    Ответить на тему
     
    Автор Сообщение

    rechyn

    Создавать темы 22-Дек-2015 00:21

           

    [Цитировать]

    ИспанецГод выпуска: 2015
    Производство: Россия, Триикс Медиа
    Жанр: Криминал, драма
    Продолжительность: 00:42:00
    Субтитры: нет
    Режиссёр: Анатолий Артамонов
    В ролях: Артём Карасёв, Вера Шпак, Алексей Красноцветов, Алексей Нилов, Егор Петренко, Станислав Мухамадеев, Дмитрий Лебедев, Игорь Качаев, Кирилл Нагиев, Олег Жилин, Михаил Елисеев, Михаил Сидаш, Татьяна Кузнецова (II), Александра Самохина, Ромуальд Макаренко, Артур Федынко, Евгений Антонов, Антонио Виллани, Роман Романцов, Глеб Темнов, Антон Денисов, Евгений Филатов, Ольга Витченко, Максим Белбородов, Борис Бедросов, Татьяна Бондаренко (II), Екатерина Суворова, Марк Гаврилов, Вячеслав Ершов (II), Анатолий Артамонов
    Описание: Ржавые вагоны, железная дорога и огромный рынок. Всё это - мир Саши и Кости, двух друзей-беспризорников, которые в суровых реалиях начала девяностых смогли сохранить в чистой детской душе веру в добро и справедливость. Однако их хрупкий мирок рушится, когда ребята встают на пути продажных милиционеров. Друзья попадают в приют, где сталкиваются с враждебностью директора и остальных детей. В это время детский дом посещает молодая испанская пара, которая обращает внимание на искреннего и доброго Сашу и хочет его усыновить. Костя убеждает Сашу принять предложение испанцев. Детям обещают, что в скором времени они встретятся и уже никогда не расстанутся. Но жизнь складывается совсем по-другому... Саша уезжает в Испанию с новой семьей, а Костя исчезает. И никто не может его найти.
    Испанец
    Семпл
    Качество: HDTVRip
    Формат: AVI
    Видео кодек: XviD
    Аудио кодек: AC3
    Видео: 720x400 (1.80:1), 25 fps, XviD build 73 ~1632 kbps avg, 0.22 bit/pixel
    Аудио: 48 kHz, AC3 Dolby Digital, 2/0 (L,R) ch, ~192.00 kbps avg

    MediaInfo

    General
    Complete name : D:\Vytas\Video\Ispanec.2015.HDTVRip.Files-x.Ispanec.2015.HDTVRip.Files-x.avi
    Format : AVI
    Format/Info : Audio Video Interleave
    File size : 550 MiB
    Duration : 41mn 54s
    Overall bit rate : 1 834 Kbps
    Writing application : VirtualDubMod 1.5.10.3 | www.virtualdub-fr.org || (build 2550/release)
    Writing library : VirtualDubMod build 2550/release
    Video
    ID : 0
    Format : MPEG-4 Visual
    Format profile : Advanced Simple@L5
    Format settings, BVOP : 1
    Format settings, QPel : No
    Format settings, GMC : No warppoints
    Format settings, Matrix : Custom
    Codec ID : XVID
    Codec ID/Hint : XviD
    Duration : 41mn 54s
    Bit rate : 1 632 Kbps
    Width : 720 pixels
    Height : 400 pixels
    Display aspect ratio : 16:9
    Frame rate : 25.000 fps
    Color space : YUV
    Chroma subsampling : 4:2:0
    Bit depth : 8 bits
    Scan type : Progressive
    Compression mode : Lossy
    Bits/(Pixel*Frame) : 0.227
    Stream size : 489 MiB (89%)
    Writing library : XviD 73
    Audio
    ID : 1
    Format : AC-3
    Format/Info : Audio Coding 3
    Mode extension : CM (complete main)
    Format settings, Endianness : Big
    Codec ID : 2000
    Duration : 41mn 54s
    Bit rate mode : Constant
    Bit rate : 192 Kbps
    Channel(s) : 2 channels
    Channel positions : Front: L R
    Sampling rate : 48.0 KHz
    Compression mode : Lossy
    Stream size : 57.5 MiB (10%)
    Alignment : Split accross interleaves
    Interleave, duration : 40 ms (1.00 video frame)
    Interleave, preload duratio : 500 ms
    Сторонней рекламы нет!
    Рип:
    Раздача группы:

    Скриншоты

    Скачать .torrent

    Скачать торрент-файл бесплатно и на максимальной скорости!

    Как скачивать? · Что такое торрент? · Рейтинг и ограничения

    !ВНИМАНИЕ!
    Сайт не распространяет и не хранит электронные версии произведений, а занимается лишь лишь предоставлением доступа к создаваемому пользователями каталогу ссылок на торрент-файлы, которые содержат только списки хеш-сумм, убедительная просьба с жалобами обращаться напрямую к пользователю. Файлы для обмена на трекере предоставлены пользователями сайта, и администрация не несёт ответственности за их содержание. Просьба не заливать файлы, защищенные авторскими правами, а также файлы нелегального содержания!


    _________________
    [Профиль] [ЛС]
    Показать сообщения:    
    Ответить на тему

    Текущее время: Сегодня, в 08:29

    Часовой пояс: GMT + 2



    Вы не можете начинать темы
    Вы не можете отвечать на сообщения
    Вы не можете редактировать свои сообщения
    Вы не можете удалять свои сообщения
    Вы не можете голосовать в опросах
    Вы не можете прикреплять файлы к сообщениям
    Вы не можете скачивать файлы