BitTorrentTracker PerecTracker.org
BitTorrentTracker PerecTracker.org
    
Регистрация  ·  Вход
 
 · 
Забыли пароль?

  • Охотник за головами / Серии: 1-12 из 12 (Игорь Москвитин, Сергей Малюгов) [2015, Россия, Детектив, SATRip]

    Ответить на тему
     
    Автор Сообщение

    rechyn

    Создавать темы 22-Дек-2015 00:17

           

    [Цитировать]

    Охотник за головамиГод выпуска: 2015
    Производитель : Россия, Радуга фильм по заказу 5 канала
    Жанр: Детектив
    Продолжительность: 50 мин.
    Cубтитры: нет
    Режиссер: Игорь Москвитин, Сергей Малюгов
    В ролях: Пётр Кислов, Артур Ваха, Алексей Ведерников (II), Виктория Маслова, Вера Строкова, Валерий Соловьёв, Алан Томаев, Александр Колесник, Сергей Черапкин, Артур Федынко, Михаил Шеломенцев, Антонио Виллани, Александр Петров (III), Валентина Шевелева, Инна Ярмошук, Даниил Кокин, Руслан Барабанов, Владимир Постников, Константин Фильченков, Юлия Шубарева
    Описание: Необычный частный сыщик, он же – «охотник за головами» ловит преступников за назначенное вознаграждение. Вселенная Сани Румянцева – Петербург, его улицы, дворы, крыши. Здесь преступникам от него не скрыться. Саня далек от образа крутого парня с пудовыми кулаками, зато оптимизма и духа здорового авантюризма, чувства юмора и находчивости ему не занимать. На него точит зуб криминал, полицейские вынуждены сотрудничать с ним, ведь «дикий сыскарь» улучшает им статистику, а Румянцеву необходимы деньги и любовь: он сохнет по бывшей супруге Марине, но склеить отношения мешают опасные заказы клиентов и истории, в которые вечно попадает хрупкая напарница «охотника» Тася.
    Релиз группа
    Все раздачи сериала
    Сэмпл
    Качество: SATRip
    Формат: AVI
    Видео кодек: XviD
    Аудио кодек: AC3
    Видео: 720x400 (1.80:1), 25 fps, XviD build 73 ~1547 kbps avg, 0.22 bit/pixel
    Аудио: 48 kHz, AC3 Dolby Digital, 2/0 (L,R) ch, ~192.00 kbps avg

    MI

    General
    Complete name : Y:\раздачи\Охотник за головами.2015.SATRip.RG.Russkie.serialy.&.Files-x.Охотник за головами.2015.SATRip.RG.Russkie.serialy.&.Files-x.avi
    Format : AVI
    Format/Info : Audio Video Interleave
    File size : 599 MiB
    Duration : 47mn 54s
    Overall bit rate : 1 749 Kbps
    Writing application : VirtualDubMod 1.5.10.3 | www.virtualdub-fr.org || (build 2550/release)
    Writing library : VirtualDubMod build 2550/release
    Video
    ID : 0
    Format : MPEG-4 Visual
    Format profile : Advanced Simple@L5
    Format settings, BVOP : 1
    Format settings, QPel : No
    Format settings, GMC : No warppoints
    Format settings, Matrix : Custom
    Codec ID : XVID
    Codec ID/Hint : XviD
    Duration : 47mn 54s
    Bit rate : 1 547 Kbps
    Width : 720 pixels
    Height : 400 pixels
    Display aspect ratio : 16:9
    Frame rate : 25.000 fps
    Color space : YUV
    Chroma subsampling : 4:2:0
    Bit depth : 8 bits
    Scan type : Progressive
    Compression mode : Lossy
    Bits/(Pixel*Frame) : 0.215
    Stream size : 530 MiB (88%)
    Writing library : XviD 73
    Audio
    ID : 1
    Format : AC-3
    Format/Info : Audio Coding 3
    Mode extension : CM (complete main)
    Format settings, Endianness : Big
    Codec ID : 2000
    Duration : 47mn 54s
    Bit rate mode : Constant
    Bit rate : 192 Kbps
    Channel(s) : 2 channels
    Channel positions : Front: L R
    Sampling rate : 48.0 KHz
    Compression mode : Lossy
    Stream size : 65.8 MiB (11%)
    Alignment : Split accross interleaves
    Interleave, duration : 40 ms (1.00 video frame)
    Interleave, preload duratio : 500 ms

    Скриншоты

    Скачать .torrent

    Скачать торрент-файл бесплатно и на максимальной скорости!

    Как скачивать? · Что такое торрент? · Рейтинг и ограничения

    !ВНИМАНИЕ!
    Сайт не распространяет и не хранит электронные версии произведений, а занимается лишь лишь предоставлением доступа к создаваемому пользователями каталогу ссылок на торрент-файлы, которые содержат только списки хеш-сумм, убедительная просьба с жалобами обращаться напрямую к пользователю. Файлы для обмена на трекере предоставлены пользователями сайта, и администрация не несёт ответственности за их содержание. Просьба не заливать файлы, защищенные авторскими правами, а также файлы нелегального содержания!


    _________________
    [Профиль] [ЛС]
    Показать сообщения:    
    Ответить на тему

    Текущее время: Сегодня, в 06:58

    Часовой пояс: GMT + 2



    Вы не можете начинать темы
    Вы не можете отвечать на сообщения
    Вы не можете редактировать свои сообщения
    Вы не можете удалять свои сообщения
    Вы не можете голосовать в опросах
    Вы не можете прикреплять файлы к сообщениям
    Вы не можете скачивать файлы