BitTorrentTracker PerecTracker.org
BitTorrentTracker PerecTracker.org
    
Регистрация  ·  Вход
 
 · 
Забыли пароль?

  • Я тоже хочу (Алексей Балабанов) [2012, Россия, драма, криминал, BDRip HD (720p), SD (480p)] Original

    Ответить на тему
     
    Автор Сообщение

    Flirldrerve

    Создавать темы 20-Дек-2015 21:50

           

    [Цитировать]

    Я тоже хочу
    6.461 / 10
    -Год выпуска: 2012
    Страна: Россия
    Жанр: драма, криминал
    Продолжительность: 89 мин.
    Перевод: Не требуется
    Оригинальная аудиодорожка: Есть
    Cубтитры: Нет
    Режиссёр: Алексей Балабанов
    Сценарий: Алексей Балабанов
    Продюсер: Сергей Сельянов
    Оператор: Александр Симонов
    Композитор: Леонид Фёдоров
    Художник: Анастасия Каримулина, Надежда Васильева
    Монтаж: Татьяна Кузьмичева
    В ролях: Александр Мосин, Олег Гаркуша, Юрий Матвеев, Алиса Шитикова, Алексей Балабанов, Петр Балабанов, Виктор Горбунов, Авдотья Смирнова, Сергей Шолохов, Сергей Кульчицкий
    Сборы в России: $226 114
    Мировая премьера: 6 сентября 2012
    Премьера (РФ): 13 декабря 2012, Наше Кино
    Релиз на Blu-Ray: 29 января 2013, Lizard Cinema Trade
    Релиз на DVD: 15 января 2013, Lizard Cinema Trade
    Описание: По пустынной летней дороге мчится огромный черный джип. В нем - Бандит, его друг Матвей со стариком-отцом, Музыкант и красивая девушка. Они ищут Колокольню Счастья, которая по слухам находится где-то между Питером и Угличем, рядом с уже давно неработающей атомной станцией. Колокольня забирает людей. Но не всех. Но в темной большой машине каждый верит, что выберут его.-Качество исходника: Blu-Ray 1080p (HDClub)
    Качество: BDRip
    Тип: 480p 720p
    Контейнер: m4v
    Видео: 640x478 анаморф 852x478 at 25.000 fps, MPEG-4 AVC, ~1500 kbps avg
    Видео: 1280x718 at 25.000 fps, MPEG-4 AVC, ~4500 kbps avg
    Аудио#1: Russian: 48 kHz, ААС, 2/0 (L,R), ~128.00 / 160.00 kbps avg
    Аудио#2: Russian: 48 kHz, AC3, 3/2 (L,C,R,l,r) + LFE ch, ~640.00 kbps avg-

    Знаете ли Вы, что...

    • Для фильма не было построено ни одной декорации.
    • Через сорок дней после смерти Алексея Балабанова, 27 июня 2013 года, колокольня Запогостской церкви обрушилась.
    • Алексей Балабанов появился в эпизодической роли кинорежиссера, умирающего в заключительной сцене фильма. В 2012 году у Балабанова было обнаружено онкологическое заболевание, и в интервью он неоднократно намекал на свою скорую смерть и говорил, что это будет его последний фильм.

    -

    iTunes Meta Tags for country ru

    Sort Name: Я тоже хочу
    XID: Apple:vendor-id:2012-669275
    contentID: 669275
    Screenwriters: Алексей Балабанов
    Producers: Сергей Сельянов
    Director: Алексей Балабанов
    Cast: Александр Мосин, Олег Гаркуша, Юрий Матвеев, Алиса Шитикова, Алексей Балабанов, Петр Балабанов, Виктор Горбунов, Авдотья Смирнова, Сергей Шолохов, Сергей Кульчицкий
    Rating: 18+
    Long Description: По пустынной летней дороге мчится огромный черный джип. В нем — Бандит, его друг Матвей со стариком-отцом, Музыкант и красивая девушка. Они ищут Колокольню Счастья, которая по слухам находится где-то между Питером и Угличем, рядом с уже давно неработающей атомной станцией. Колокольня забирает людей. Но не всех. Но в темной большой машине каждый верит, что выберут его.
    Description: По пустынной летней дороге мчится огромный черный джип. В нем — Бандит, его друг Матвей со стариком-отцом, Музыкант и красивая девушка. Они ищут Колокольню Счастья, которая по слухам находится где-то между Питером и Угличем, рядом с уже давно неработ
    Release Date: 2012-09-06T07:00:00Z
    Genre: Drama
    Artist: Алексей Балабанов
    Name: Я тоже хочу

    MediaInfo 480p Release

    Общее
    Полное имя : Я тоже хочу.m4v
    Формат : MPEG-4
    Идентификатор кодека : M4V  (M4V /M4A /mp42/isom)
    Размер файла : 935 Мбайт
    Продолжительность : 1 ч. 19 м.
    Режим общего битрейта : Переменный
    Общий поток : 1637 Кбит/сек
    Название фильма : Я тоже хочу
    Исполнитель : Алексей Балабанов
    Режиссёр : Алексей Балабанов
    Исполнитель : Александр Мосин / Олег Гаркуша / Юрий Матвеев / Алиса Шитикова / Алексей Балабанов / Петр Балабанов / Виктор Горбунов / Авдотья Смирнова / Сергей Шолохов / Сергей Кульчицкий
    Сценарист : Алексей Балабанов
    Продюсер : Сергей Сельянов
    Жанр : Drama
    Тип содержимого : Short Film
    Описание : По пустынной летней дороге мчится огромный черный джип. В нем — Бандит, его друг Матвей со стариком-отцом, Музыкант и красивая девушка. Они ищут Колокольню Счастья, которая по слухам находится где-то между Питером и Угличем, рядом с уже давно неработ
    Дата записи : UTC 2012-09-06 07:00:00
    Дата кодирования : UTC 2013-07-10 11:47:27
    Дата пометки : UTC 2013-07-10 11:53:25
    Обложка : Yes
    Рейтинг : None
    Title/Sort : Я тоже хочу
    LongDescription : По пустынной летней дороге мчится огромный черный джип. В нем — Бандит, его друг Матвей со стариком-отцом, Музыкант и красивая девушка. Они ищут Колокольню Счастья, которая по слухам находится где-то между Питером и Угличем, рядом с уже давно неработающей атомной станцией. Колокольня забирает людей. Но не всех. Но в темной большой машине каждый верит, что выберут его.
    AppleStoreCatalogID : 669275
    Vendor : Apple:vendor-id:2012-669275
    ContentRating : ru-movie|18+|400|
    Видео #1
    Идентификатор : 1
    Формат : AVC
    Формат/Информация : Advanced Video Codec
    Профиль формата : Baseline@L3
    Параметр CABAC формата : Нет
    Параметр ReFrames формата : 2 кадра
    Идентификатор кодека : avc1
    Идентификатор кодека/Информация : Advanced Video Coding
    Продолжительность : 1 ч. 19 м.
    Битрейт : 1500 Кбит/сек
    Ширина : 640 пикселей
    Высота : 478 пикселей
    Соотношение сторон : 16:9
    Режим частоты кадров : Постоянный
    Частота кадров : 25,000 кадров/сек
    Цветовое пространство : YUV
    Субдискретизация насыщенности : 4:2:0
    Битовая глубина : 8 бит
    Тип развёртки : Прогрессивная
    Бит/(Пиксели*Кадры) : 0.196
    Размер потока : 855 Мбайт (91%)
    Заголовок : Main Program
    Библиотека кодирования : x264 core 130 r2273 b3065e6
    Настройки программы : cabac=0 / ref=2 / deblock=1:0:0 / analyse=0x1:0x111 / me=umh / subme=6 / psy=1 / psy_rd=1.00:0.00 / mixed_ref=1 / me_range=16 / chroma_me=1 / trellis=0 / 8x8dct=0 / cqm=0 / deadzone=21,11 / fast_pskip=1 / chroma_qp_offset=-2 / threads=6 / lookahead_threads=1 / sliced_threads=0 / nr=0 / decimate=1 / interlaced=0 / bluray_compat=0 / constrained_intra=0 / bframes=0 / weightp=0 / keyint=250 / keyint_min=25 / scenecut=40 / intra_refresh=0 / rc_lookahead=40 / rc=2pass / mbtree=1 / bitrate=1500 / ratetol=1.0 / qcomp=0.60 / qpmin=0 / qpmax=69 / qpstep=4 / cplxblur=20.0 / qblur=0.5 / vbv_maxrate=5000 / vbv_bufsize=5000 / nal_hrd=none / ip_ratio=1.40 / aq=1:1.00
    Язык : Russian
    Дата кодирования : UTC 2013-07-10 11:47:27
    Дата пометки : UTC 2013-07-10 11:48:30
    Color range : Limited
    Основные цвета : BT.709
    Характеристики трансфера : BT.709
    Коэффициенты матрицы : BT.709
    Menus : 3,4
    Видео #2
    Идентификатор : 4
    Формат : JPEG
    Идентификатор кодека : jpeg
    Продолжительность : 1 ч. 19 м.
    Вид битрейта : Переменный
    Битрейт : 1123 бит/сек
    Ширина : 640 пикселей
    Высота : 359 пикселей
    Соотношение сторон : 16:9
    Режим частоты кадров : Переменный
    Частота кадров : 0,003 кадр/сек
    Минимальная частота кадров : 0,002 кадр/сек
    Максимальная частота кадров : 0,003 кадр/сек
    Цветовое пространство : YUV
    Субдискретизация насыщенности : 4:2:0
    Битовая глубина : 8 бит
    Метод сжатия : С потерями
    Бит/(Пиксели*Кадры) : 1.629
    Размер потока : 548 Кбайт (0%)
    Заголовок : Chapter Images
    Язык : Russian
    Default : Нет
    Дата кодирования : UTC 2013-07-10 11:48:33
    Дата пометки : UTC 2013-07-10 11:48:33
    Menu For : 1
    Аудио
    Идентификатор : 2
    Формат : AAC
    Формат/Информация : Advanced Audio Codec
    Профиль формата : LC
    Идентификатор кодека : 40
    Продолжительность : 1 ч. 19 м.
    Вид битрейта : Переменный
    Битрейт : 132 Кбит/сек
    Максимальный битрейт : 211 Кбит/сек
    Каналы : 2 канала
    Расположение каналов : Front: L R
    Частота : 48,0 КГц
    Частота кадров : 46,875 кадров/сек (1024 spf)
    Метод сжатия : С потерями
    Размер потока : 75,4 Мбайт (8%)
    Заголовок : Russian Stereo
    Язык : Russian
    Default : Да
    Alternate group : 1
    Дата кодирования : UTC 2013-07-10 11:47:27
    Дата пометки : UTC 2013-07-10 11:47:34
    Menus : 3
    Меню #1
    00:00:00.000 : Глава 1
    00:06:02.680 : Глава 2
    00:11:28.600 : Глава 3
    00:16:42.400 : Глава 4
    00:25:26.280 : Глава 5
    00:32:08.840 : Глава 6
    00:39:30.080 : Глава 7
    00:46:23.160 : Глава 8
    00:52:33.040 : Глава 9
    01:00:25.200 : Глава 10
    01:08:25.320 : Глава 11
    01:13:45.520 : Глава 12
    Меню #2
    Идентификатор : 3
    Идентификатор кодека : text
    Продолжительность : 1 ч. 19 м.
    Заголовок : Chapter Titles
    Язык : Russian
    Дата кодирования : UTC 2013-07-10 11:48:30
    Дата пометки : UTC 2013-07-10 11:48:30
    Menu For : 2,1
    00:00:00.000 : Глава 1
    00:06:02.680 : Глава 2
    00:11:28.600 : Глава 3
    00:16:42.400 : Глава 4
    00:25:26.280 : Глава 5
    00:32:08.840 : Глава 6
    00:39:30.080 : Глава 7
    00:46:23.160 : Глава 8
    00:52:33.040 : Глава 9
    01:00:25.200 : Глава 10
    01:08:25.320 : Глава 11
    01:13:45.520 : Глава 12
    Вид битрейта : VBR

    MediaInfo 720p Release

    Общее
    Полное имя : Я тоже хочу (HD).m4v
    Формат : MPEG-4
    Идентификатор кодека : M4V  (M4V /M4A /mp42/isom)
    Размер файла : 2,97 Гбайт
    Продолжительность : 1 ч. 19 м.
    Режим общего битрейта : Переменный
    Общий поток : 5316 Кбит/сек
    Название фильма : Я тоже хочу
    Исполнитель : Алексей Балабанов
    Режиссёр : Алексей Балабанов
    Исполнитель : Александр Мосин / Олег Гаркуша / Юрий Матвеев / Алиса Шитикова / Алексей Балабанов / Петр Балабанов / Виктор Горбунов / Авдотья Смирнова / Сергей Шолохов / Сергей Кульчицкий
    Сценарист : Алексей Балабанов
    Продюсер : Сергей Сельянов
    Жанр : Drama
    Тип содержимого : Short Film
    Описание : По пустынной летней дороге мчится огромный черный джип. В нем — Бандит, его друг Матвей со стариком-отцом, Музыкант и красивая девушка. Они ищут Колокольню Счастья, которая по слухам находится где-то между Питером и Угличем, рядом с уже давно неработ
    Дата записи : UTC 2012-09-06 07:00:00
    Дата кодирования : UTC 2013-07-10 11:40:47
    Дата пометки : UTC 2013-07-10 11:51:36
    Обложка : Yes
    Рейтинг : None
    Title/Sort : Я тоже хочу
    LongDescription : По пустынной летней дороге мчится огромный черный джип. В нем — Бандит, его друг Матвей со стариком-отцом, Музыкант и красивая девушка. Они ищут Колокольню Счастья, которая по слухам находится где-то между Питером и Угличем, рядом с уже давно неработающей атомной станцией. Колокольня забирает людей. Но не всех. Но в темной большой машине каждый верит, что выберут его.
    HDVideo : Yes
    AppleStoreCatalogID : 669275
    Vendor : Apple:vendor-id:2012-669275
    ContentRating : ru-movie|18+|400|
    Видео #1
    Идентификатор : 1
    Формат : AVC
    Формат/Информация : Advanced Video Codec
    Профиль формата : High@L3.1
    Параметр CABAC формата : Нет
    Параметр ReFrames формата : 3 кадра
    Идентификатор кодека : avc1
    Идентификатор кодека/Информация : Advanced Video Coding
    Продолжительность : 1 ч. 19 м.
    Битрейт : 4500 Кбит/сек
    Ширина : 1280 пикселей
    Высота : 718 пикселей
    Соотношение сторон : 16:9
    Режим частоты кадров : Постоянный
    Частота кадров : 25,000 кадров/сек
    Цветовое пространство : YUV
    Субдискретизация насыщенности : 4:2:0
    Битовая глубина : 8 бит
    Тип развёртки : Прогрессивная
    Бит/(Пиксели*Кадры) : 0.196
    Размер потока : 2,51 Гбайт (85%)
    Заголовок : Main Program
    Библиотека кодирования : x264 core 130 r2273 b3065e6
    Настройки программы : cabac=0 / ref=3 / deblock=1:1:-3 / analyse=0x3:0x113 / me=umh / subme=9 / psy=1 / psy_rd=0.90:0.00 / mixed_ref=1 / me_range=32 / chroma_me=1 / trellis=0 / 8x8dct=1 / cqm=0 / deadzone=21,11 / fast_pskip=1 / chroma_qp_offset=-2 / threads=6 / lookahead_threads=1 / sliced_threads=0 / nr=0 / decimate=1 / interlaced=0 / bluray_compat=0 / constrained_intra=0 / bframes=3 / b_pyramid=0 / b_adapt=2 / b_bias=0 / direct=1 / weightb=0 / open_gop=0 / weightp=0 / keyint=250 / keyint_min=25 / scenecut=40 / intra_refresh=0 / rc_lookahead=40 / rc=2pass / mbtree=1 / bitrate=4500 / ratetol=1.0 / qcomp=0.60 / qpmin=0 / qpmax=69 / qpstep=4 / cplxblur=20.0 / qblur=0.5 / vbv_maxrate=9500 / vbv_bufsize=9500 / nal_hrd=none / ip_ratio=1.40 / aq=1:1.00
    Язык : Russian
    Дата кодирования : UTC 2013-07-10 11:40:47
    Дата пометки : UTC 2013-07-10 11:43:46
    Color range : Limited
    Основные цвета : BT.709
    Характеристики трансфера : BT.709
    Коэффициенты матрицы : BT.709
    Menus : 4,5
    Видео #2
    Идентификатор : 5
    Формат : JPEG
    Идентификатор кодека : jpeg
    Продолжительность : 1 ч. 19 м.
    Вид битрейта : Переменный
    Битрейт : 1195 бит/сек
    Ширина : 640 пикселей
    Высота : 359 пикселей
    Соотношение сторон : 16:9
    Режим частоты кадров : Переменный
    Частота кадров : 0,003 кадр/сек
    Минимальная частота кадров : 0,002 кадр/сек
    Максимальная частота кадров : 0,003 кадр/сек
    Цветовое пространство : YUV
    Субдискретизация насыщенности : 4:2:0
    Битовая глубина : 8 бит
    Метод сжатия : С потерями
    Бит/(Пиксели*Кадры) : 1.734
    Размер потока : 583 Кбайт (0%)
    Заголовок : Chapter Images
    Язык : Russian
    Default : Нет
    Дата кодирования : UTC 2013-07-10 11:44:15
    Дата пометки : UTC 2013-07-10 11:44:16
    Menu For : 1
    Аудио #1
    Идентификатор : 2
    Формат : AAC
    Формат/Информация : Advanced Audio Codec
    Профиль формата : LC
    Идентификатор кодека : 40
    Продолжительность : 1 ч. 19 м.
    Вид битрейта : Переменный
    Битрейт : 169 Кбит/сек
    Максимальный битрейт : 250 Кбит/сек
    Каналы : 2 канала
    Расположение каналов : Front: L R
    Частота : 48,0 КГц
    Частота кадров : 46,875 кадров/сек (1024 spf)
    Метод сжатия : С потерями
    Размер потока : 96,7 Мбайт (3%)
    Заголовок : Russian Stereo
    Язык : Russian
    Default : Да
    Alternate group : 1
    Дата кодирования : UTC 2013-07-10 11:40:47
    Дата пометки : UTC 2013-07-10 11:40:53
    Fallback From : 3
    Menus : 4
    Аудио #2
    Идентификатор : 3
    Формат : AC-3
    Формат/Информация : Audio Coding 3
    Расширение режима : CM (complete main)
    Параметр Endianness формата : Big
    Идентификатор кодека : ac-3
    Продолжительность : 1 ч. 19 м.
    Вид битрейта : Постоянный
    Битрейт : 640 Кбит/сек
    Каналы : 6 каналов
    Расположение каналов : Front: L C R, Side: L R, LFE
    Частота : 48,0 КГц
    Частота кадров : 31,250 кадров/сек (1536 spf)
    Битовая глубина : 16 бит
    Метод сжатия : С потерями
    Размер потока : 366 Мбайт (12%)
    Заголовок : Russian DD 5.1
    Язык : Russian
    Default : Inherited From: 2
    Alternate group : 1
    Дата кодирования : UTC 2013-07-10 11:40:47
    Дата пометки : UTC 2013-07-10 11:44:10
    Fallback To : 2
    Меню #1
    00:00:00.000 : Глава 1
    00:06:02.680 : Глава 2
    00:11:28.600 : Глава 3
    00:16:42.400 : Глава 4
    00:25:26.280 : Глава 5
    00:32:08.840 : Глава 6
    00:39:30.080 : Глава 7
    00:46:23.160 : Глава 8
    00:52:33.040 : Глава 9
    01:00:25.200 : Глава 10
    01:08:25.320 : Глава 11
    01:13:45.520 : Глава 12
    Меню #2
    Идентификатор : 4
    Идентификатор кодека : text
    Продолжительность : 1 ч. 19 м.
    Заголовок : Chapter Titles
    Язык : Russian
    Дата кодирования : UTC 2013-07-10 11:44:10
    Дата пометки : UTC 2013-07-10 11:44:10
    Menu For : 2,1
    00:00:00.000 : Глава 1
    00:06:02.680 : Глава 2
    00:11:28.600 : Глава 3
    00:16:42.400 : Глава 4
    00:25:26.280 : Глава 5
    00:32:08.840 : Глава 6
    00:39:30.080 : Глава 7
    00:46:23.160 : Глава 8
    00:52:33.040 : Глава 9
    01:00:25.200 : Глава 10
    01:08:25.320 : Глава 11
    01:13:45.520 : Глава 12
    Вид битрейта : VBR

    x264 лог 480p Release

    HandBrakeCLI -i "/YTH_HDCLUB/BDMV/STREAM/00004.m2ts" -t 1 -o "I want to.m4v" -f mp4 -I  -O  -w 640 -l 478 --crop 2:0:0:0 --custom-anamorphic --modulus 2 --pixel-aspect 852:640 -e x264 -b 1500 -2  -a none  -x cabac=0:ref=2:me=umh:bframes=0:weightp=0:subq=6:8x8dct=0:trellis=0:vbv-maxrate=5000:vbv-bufsize=5000 --verbose=1
    x264 [info]: frame I:772   Avg QP:15.65  size: 36606  PSNR Mean Y:48.27 U:52.23 V:52.58 Avg:49.23 Global:48.51
    x264 [info]: frame P:119028 Avg QP:18.74  size:  7299  PSNR Mean Y:45.15 U:49.45 V:49.76 Avg:46.17 Global:45.60
    x264 [info]: mb I  I16..4: 23.9%  0.0% 76.1%
    x264 [info]: mb P  I16..4:  1.3%  0.0%  2.0%  P16..4: 43.6% 17.7%  7.4%  0.0%  0.0%    skip:28.0%
    x264 [info]: coded y,uvDC,uvAC intra: 57.4% 59.2% 36.8% inter: 23.5% 15.7% 2.3%
    x264 [info]: i16 v,h,dc,p: 39% 34%  8% 18%
    x264 [info]: i4 v,h,dc,ddl,ddr,vr,hd,vl,hu: 27% 17% 16%  6%  8%  8%  7%  7%  5%
    x264 [info]: i8c dc,h,v,p: 56% 17% 21%  6%
    x264 [info]: ref P L0: 71.8% 28.2%
    x264 [info]: SSIM Mean Y:0.9875406 (19.045db)
    x264 [info]: PSNR Mean Y:45.172 U:49.472 V:49.777 Avg:46.185 Global:45.610 kb/s:1497.59

    x264 лог 720p Release

    HandBrakeCLI -i "/YTH_HDCLUB/BDMV/STREAM/00004.m2ts" -t 1 -o "I want to (HD).m4v" -f mp4 -4  -O  -w 1280 -l 718 --crop 2:0:0:0 --modulus 2 -e x264 -b 4500 -2 -a none  -x cabac=0:ref=3:me=umh:b-pyramid=none:b-adapt=2:weightb=0:trellis=0:deblock=1,-3:weightp=0:psy-rd=0.90,0.00:vbv-maxrate=9500:vbv-bufsize=9500:subq=9:merange=32 --verbose=1
    x264 [info]: frame I:636   Avg QP:12.87  size:141374  PSNR Mean Y:49.99 U:54.00 V:54.04 Avg:50.94 Global:50.52
    x264 [info]: frame P:44027 Avg QP:15.39  size: 40765  PSNR Mean Y:47.27 U:51.32 V:51.57 Avg:48.25 Global:47.75
    x264 [info]: frame B:75137 Avg QP:18.07  size: 10764  PSNR Mean Y:46.25 U:51.18 V:51.20 Avg:47.35 Global:46.82
    x264 [info]: consecutive B-frames:  4.6% 18.7% 50.2% 26.5%
    x264 [info]: mb I  I16..4:  7.2% 54.9% 37.9%
    x264 [info]: mb P  I16..4:  1.2%  4.8%  2.5%  P16..4: 41.7% 26.6% 10.6%  0.0%  0.0%    skip:12.7%
    x264 [info]: mb B  I16..4:  0.2%  0.8%  0.4%  B16..8: 41.9% 12.4%  1.6%  direct: 4.5%  skip:38.1%  L0:40.8% L1:49.6% BI: 9.6%
    x264 [info]: 8x8 transform intra:56.1% inter:46.2%
    x264 [info]: coded y,uvDC,uvAC intra: 81.7% 69.7% 46.3% inter: 20.5% 14.4% 2.2%
    x264 [info]: i16 v,h,dc,p: 40% 23%  9% 28%
    x264 [info]: i8 v,h,dc,ddl,ddr,vr,hd,vl,hu:  9% 11%  8% 10% 14% 13% 14% 11% 11%
    x264 [info]: i4 v,h,dc,ddl,ddr,vr,hd,vl,hu: 10% 13%  5% 10% 15% 14% 14% 10% 10%
    x264 [info]: i8c dc,h,v,p: 51% 20% 20%  9%
    x264 [info]: ref P L0: 67.8% 20.0% 12.2%
    x264 [info]: ref B L0: 78.5% 21.5%
    x264 [info]: SSIM Mean Y:0.9875867 (19.061db)
    x264 [info]: PSNR Mean Y:46.644 U:51.245 V:51.348 Avg:47.698 Global:47.156 kb/s:4496.57

    Скриншоты 480p Release

    Скриншоты 720p Release

    -

    Релиз подготовлен для просмотра на Apple TV, iPad, iPhone, iPod Touch.
    Для просмотра данного релиза на компьютере с ОС Windows рекомендуется использовать VLC media player
    Скачать .torrent

    Скачать торрент-файл бесплатно и на максимальной скорости!

    Как скачивать? · Что такое торрент? · Рейтинг и ограничения

    !ВНИМАНИЕ!
    Сайт не распространяет и не хранит электронные версии произведений, а занимается лишь лишь предоставлением доступа к создаваемому пользователями каталогу ссылок на торрент-файлы, которые содержат только списки хеш-сумм, убедительная просьба с жалобами обращаться напрямую к пользователю. Файлы для обмена на трекере предоставлены пользователями сайта, и администрация не несёт ответственности за их содержание. Просьба не заливать файлы, защищенные авторскими правами, а также файлы нелегального содержания!


    _________________
    [Профиль] [ЛС]
    Показать сообщения:    
    Ответить на тему

    Текущее время: Сегодня, в 22:10

    Часовой пояс: GMT + 2



    Вы не можете начинать темы
    Вы не можете отвечать на сообщения
    Вы не можете редактировать свои сообщения
    Вы не можете удалять свои сообщения
    Вы не можете голосовать в опросах
    Вы не можете прикреплять файлы к сообщениям
    Вы не можете скачивать файлы