BitTorrentTracker PerecTracker.org
BitTorrentTracker PerecTracker.org
    
Регистрация  ·  Вход
 
 · 
Забыли пароль?

  • Беглец / The Runner (Остин Старк / Austin Stark) [2015, США, Драма, HDRip] Dub (iTunes)

    Ответить на тему
     
    Автор Сообщение

    Light

    Создавать темы 20-Дек-2015 21:50

           

    [Цитировать]

    Беглец
    The Runner
    -Год выпуска: 2015
    Страна: США
    Жанр: Драма
    Продолжительность: 01:30:08
    Перевод: Профессиональное (дублированный) [iTunes]
    Субтитры: нет
    Оригинальная аудиодорожка: нет-Режиссер: Остин Старк / Austin Stark-В ролях: Николас Кейдж, Сара Полсон, Конни Нильсен, Уенделл Пирс, Брайан Бэтт, Питер Фонда, Лара Грайс, Дэна Гурье, Ванета Уолмсли, Фредрик Лене-Описание: Конгрессмен Колин Прайс безумно увлечен двумя вещами: политикой и женщинами. После аварии на нефтяной платформе его жизнь полностью меняется. Камеры наблюдения ловят его с темнокожей Люси, женой одного из пострадавших в аварии. Разразившийся сексуальный скандал ставит под угрозу не только карьеру Прайса, но и всю его жизнь. Ложь — лучший политический союзник, но что делать, когда дело касается любви?…- -Семпл: http://multi-up.com/1070879-Качество видео: HDRip (исходник BDRip 720p)
    Формат видео: AVI
    Видео: 720x304 (2.37:1), 23.976 fps, XviD build 50 ~1916 kbps avg, 0.36 bit/pixel
    Аудио: 48 kHz, AC3 Dolby Digital, 3/2 (L,C,R,l,r) + LFE ch, ~384 kbps-

    MediaInfo

    General
    Complete name : The.Runner.2015.D.HDRip.avi
    Format : AVI
    Format/Info : Audio Video Interleave
    File size : 1.45 GiB
    Duration : 1h 30mn
    Overall bit rate : 2 310 Kbps
    Writing application : VirtualDubMod 1.5.10.2 (build 2540/release)
    Writing library : VirtualDubMod build 2540/release
    Video
    ID : 0
    Format : MPEG-4 Visual
    Format profile : Advanced Simple@L5
    Format settings, BVOP : 2
    Format settings, QPel : No
    Format settings, GMC : No warppoints
    Format settings, Matrix : Default (MPEG)
    Codec ID : XVID
    Codec ID/Hint : XviD
    Duration : 1h 30mn
    Bit rate : 1 917 Kbps
    Width : 720 pixels
    Height : 304 pixels
    Display aspect ratio : 2.35:1
    Frame rate : 23.976 fps
    Color space : YUV
    Chroma subsampling : 4:2:0
    Bit depth : 8 bits
    Scan type : Progressive
    Compression mode : Lossy
    Bits/(Pixel*Frame) : 0.365
    Stream size : 1.21 GiB (83%)
    Writing library : XviD 1.2.1 (UTC 2008-12-04)
    Audio
    ID : 1
    Format : AC-3
    Format/Info : Audio Coding 3
    Mode extension : CM (complete main)
    Format settings, Endianness : Big
    Codec ID : 2000
    Duration : 1h 30mn
    Bit rate mode : Constant
    Bit rate : 384 Kbps
    Channel(s) : 6 channels
    Channel positions : Front: L C R, Side: L R, LFE
    Sampling rate : 48.0 KHz
    Compression mode : Lossy
    Stream size : 248 MiB (17%)
    Alignment : Split accross interleaves
    Interleave, duration : 42 ms (1.00 video frame)
    Interleave, preload duratio : 500 ms

    Скриншоты



    Скачать .torrent

    Скачать торрент-файл бесплатно и на максимальной скорости!

    Как скачивать? · Что такое торрент? · Рейтинг и ограничения

    !ВНИМАНИЕ!
    Сайт не распространяет и не хранит электронные версии произведений, а занимается лишь лишь предоставлением доступа к создаваемому пользователями каталогу ссылок на торрент-файлы, которые содержат только списки хеш-сумм, убедительная просьба с жалобами обращаться напрямую к пользователю. Файлы для обмена на трекере предоставлены пользователями сайта, и администрация не несёт ответственности за их содержание. Просьба не заливать файлы, защищенные авторскими правами, а также файлы нелегального содержания!


    _________________
    [Профиль] [ЛС]
    Показать сообщения:    
    Ответить на тему

    Текущее время: Сегодня, в 12:43

    Часовой пояс: GMT + 2



    Вы не можете начинать темы
    Вы не можете отвечать на сообщения
    Вы не можете редактировать свои сообщения
    Вы не можете удалять свои сообщения
    Вы не можете голосовать в опросах
    Вы не можете прикреплять файлы к сообщениям
    Вы не можете скачивать файлы