BitTorrentTracker PerecTracker.org
BitTorrentTracker PerecTracker.org
    
Регистрация  ·  Вход
 
 · 
Забыли пароль?

  • (AOR/Pop-rock) Steve Perry - Street Talk - 1984, FLAC (tracks+.cue), lossless

    Ответить на тему
     
    Автор Сообщение

    Columb

    Создавать темы 19-Авг-2013 11:02

           

    [Цитировать]

    Steve Perry / Street Talk
    Жанр: AOR/Pop-rock
    Страна-производитель диска: USA
    Год издания: 1984
    Издатель (лейбл): Columbia
    Номер по каталогу: CK39334
    Страна: USA
    Аудиокодек: FLAC (*.flac)
    Тип рипа: tracks+.cue
    Битрейт аудио: lossless
    Продолжительность: 00:39:21
    Источник (релизер): найдено в Сети
    Наличие сканов в содержимом раздачи: да
    Треклист:
    01. Oh Sherrie 3:49
    02. I Believe 4:12
    03. Go Away 4:07
    04. Foolish Heart 3:40
    05. It's Only Love 3:52
    06. She's Mine 4:27
    07. You Should Be Happy 3:24
    08. Running Alone 4:07
    09. Captured By The Moment 3:49
    10. Strung Out 3:53

    Лог создания рипа

    Exact Audio Copy V0.99 prebeta 5 from 4. May 2009
    EAC extraction logfile from 19. July 2009, 17:53
    Steve Perry / Street Talk
    Used drive : HL-DT-STRW/DVD GCC-H10N Adapter: 1 ID: 0
    Read mode : Secure
    Utilize accurate stream : Yes
    Defeat audio cache : Yes
    Make use of C2 pointers : No
    Read offset correction : 6
    Overread into Lead-In and Lead-Out : No
    Fill up missing offset samples with silence : Yes
    Delete leading and trailing silent blocks : No
    Null samples used in CRC calculations : Yes
    Used interface : Installed external ASPI interface
    Gap handling : Appended to previous track
    Used output format : User Defined Encoder
    Selected bitrate : 1024 kBit/s
    Quality : High
    Add ID3 tag : No
    Command line compressor : C:\Program Files\Exact Audio Copy\Flac\flac.exe
    Additional command line options : -8 -V -T "ARTIST=%a" -T "TITLE=%t" -T "ALBUM=%g" -T "DATE=%y" -T "TRACKNUMBER=%n" -T "GENRE=%m" -T "COMMENT=%e" %s -o %d
    TOC of the extracted CD
    Track | Start | Length | Start sector | End sector
    ---------------------------------------------------------
    1 | 0:00.00 | 3:49.30 | 0 | 17204
    2 | 3:49.30 | 4:12.37 | 17205 | 36141
    3 | 8:01.67 | 4:07.18 | 36142 | 54684
    4 | 12:09.10 | 3:39.45 | 54685 | 71154
    5 | 15:48.55 | 3:52.30 | 71155 | 88584
    6 | 19:41.10 | 4:27.05 | 88585 | 108614
    7 | 24:08.15 | 3:23.72 | 108615 | 123911
    8 | 27:32.12 | 4:06.45 | 123912 | 142406
    9 | 31:38.57 | 3:49.08 | 142407 | 159589
    10 | 35:27.65 | 3:52.67 | 159590 | 177056
    Track 1
    Filename Z:\home\CDrips\Steve Perry - Street Talk (1984)\01 - Steve Perry - Oh Sherrie.wav
    Pre-gap length 0:00:02.00
    Peak level 93.6 %
    Track quality 100.0 %
    Test CRC 8F0A8684
    Copy CRC 8F0A8684
    Accurately ripped (confidence 12) [6D18535A]
    Copy OK
    Track 2
    Filename Z:\home\CDrips\Steve Perry - Street Talk (1984)\02 - Steve Perry - I Believe.wav
    Peak level 96.3 %
    Track quality 100.0 %
    Test CRC DECB1B0B
    Copy CRC DECB1B0B
    Accurately ripped (confidence 11) [4F545BFD]
    Copy OK
    Track 3
    Filename Z:\home\CDrips\Steve Perry - Street Talk (1984)\03 - Steve Perry - Go Away.wav
    Peak level 65.5 %
    Track quality 100.0 %
    Test CRC D2383F43
    Copy CRC D2383F43
    Accurately ripped (confidence 11) [D2D8177A]
    Copy OK
    Track 4
    Filename Z:\home\CDrips\Steve Perry - Street Talk (1984)\04 - Steve Perry - Foolish Heart.wav
    Peak level 58.0 %
    Track quality 100.0 %
    Test CRC 1153FACF
    Copy CRC 1153FACF
    Accurately ripped (confidence 12) [18315E18]
    Copy OK
    Track 5
    Filename Z:\home\CDrips\Steve Perry - Street Talk (1984)\05 - Steve Perry - It's Only Love.wav
    Peak level 82.5 %
    Track quality 100.0 %
    Test CRC 0A899028
    Copy CRC 0A899028
    Accurately ripped (confidence 11) [21081CB2]
    Copy OK
    Track 6
    Filename Z:\home\CDrips\Steve Perry - Street Talk (1984)\06 - Steve Perry - She's Mine.wav
    Pre-gap length 0:00:02.44
    Peak level 100.0 %
    Track quality 100.0 %
    Test CRC 6F0B2423
    Copy CRC 6F0B2423
    Accurately ripped (confidence 11) [6EEC1FF0]
    Copy OK
    Track 7
    Filename Z:\home\CDrips\Steve Perry - Street Talk (1984)\07 - Steve Perry - You Should Be Happy.wav
    Peak level 87.0 %
    Track quality 100.0 %
    Test CRC 8FE27A33
    Copy CRC 8FE27A33
    Accurately ripped (confidence 11) [E0E2F32F]
    Copy OK
    Track 8
    Filename Z:\home\CDrips\Steve Perry - Street Talk (1984)\08 - Steve Perry - Running Alone.wav
    Pre-gap length 0:00:01.73
    Peak level 76.1 %
    Track quality 100.0 %
    Test CRC F6297844
    Copy CRC F6297844
    Accurately ripped (confidence 11) [3449D329]
    Copy OK
    Track 9
    Filename Z:\home\CDrips\Steve Perry - Street Talk (1984)\09 - Steve Perry - Captured By The Moment.wav
    Pre-gap length 0:00:00.53
    Peak level 96.0 %
    Track quality 99.9 %
    Test CRC 3D23A206
    Copy CRC 3D23A206
    Accurately ripped (confidence 11) [D175EC4C]
    Copy OK
    Track 10
    Filename Z:\home\CDrips\Steve Perry - Street Talk (1984)\10 - Steve Perry - Strung Out.wav
    Peak level 89.7 %
    Track quality 100.0 %
    Test CRC 0F1CC82C
    Copy CRC 0F1CC82C
    Accurately ripped (confidence 11) [B0142708]
    Copy OK
    All tracks accurately ripped
    No errors occurred
    End of status report

    Содержание индексной карты (.CUE)

    REM GENRE Pop
    REM DATE 1984
    REM DISCID 6F09380A
    REM COMMENT "ExactAudioCopy v0.99pb5"
    FILE "01 - Steve Perry - Oh Sherrie.wav" WAVE
    TRACK 01 AUDIO
    INDEX 01 00:00:00
    FILE "02 - Steve Perry - I Believe.wav" WAVE
    TRACK 02 AUDIO
    INDEX 01 00:00:00
    FILE "03 - Steve Perry - Go Away.wav" WAVE
    TRACK 03 AUDIO
    INDEX 01 00:00:00
    FILE "04 - Steve Perry - Foolish Heart.wav" WAVE
    TRACK 04 AUDIO
    INDEX 01 00:00:00
    FILE "05 - Steve Perry - It's Only Love.wav" WAVE
    TRACK 05 AUDIO
    INDEX 01 00:00:00
    TRACK 06 AUDIO
    INDEX 00 03:49:72
    FILE "06 - Steve Perry - She's Mine.wav" WAVE
    INDEX 01 00:00:00
    FILE "07 - Steve Perry - You Should Be Happy.wav" WAVE
    TRACK 07 AUDIO
    INDEX 01 00:00:00
    TRACK 08 AUDIO
    INDEX 00 03:22:17
    FILE "08 - Steve Perry - Running Alone.wav" WAVE
    INDEX 01 00:00:00
    TRACK 09 AUDIO
    INDEX 00 04:06:05
    FILE "09 - Steve Perry - Captured By The Moment.wav" WAVE
    INDEX 01 00:00:00
    FILE "10 - Steve Perry - Strung Out.wav" WAVE
    TRACK 10 AUDIO
    INDEX 01 00:00:00

    Об альбоме (сборнике)

    Первый, самый известный и самый лучший сольник фронтмена группы Journey Стива Перри. Наивысшие позиции в чартах - 12 в США и 59 в Великобритании, 2-кратная платина по версии RIAA.
    Скачать .torrent

    Скачать торрент-файл бесплатно и на максимальной скорости!

    Как скачивать? · Что такое торрент? · Рейтинг и ограничения

    !ВНИМАНИЕ!
    Сайт не распространяет и не хранит электронные версии произведений, а занимается лишь лишь предоставлением доступа к создаваемому пользователями каталогу ссылок на торрент-файлы, которые содержат только списки хеш-сумм, убедительная просьба с жалобами обращаться напрямую к пользователю. Файлы для обмена на трекере предоставлены пользователями сайта, и администрация не несёт ответственности за их содержание. Просьба не заливать файлы, защищенные авторскими правами, а также файлы нелегального содержания!

    [Профиль] [ЛС]
    Показать сообщения:    
    Ответить на тему

    Текущее время: Сегодня, в 20:48

    Часовой пояс: GMT + 2



    Вы не можете начинать темы
    Вы не можете отвечать на сообщения
    Вы не можете редактировать свои сообщения
    Вы не можете удалять свои сообщения
    Вы не можете голосовать в опросах
    Вы не можете прикреплять файлы к сообщениям
    Вы не можете скачивать файлы