BitTorrentTracker PerecTracker.org
BitTorrentTracker PerecTracker.org
    
Регистрация  ·  Вход
 
 · 
Забыли пароль?

  • Последний друид: Войны гармов / Garm Wars: The Last Druid (Мамору Осии / Mamoru Oshii) [2014, Канада, Япония, фантастика, боевик, триллер, HDRip] VO (Xixidok)

    Ответить на тему
     
    Автор Сообщение

    rechyn

    Создавать темы 20-Дек-2015 21:50

           

    [Цитировать]

    Последний друид: Войны гармов / Garm Wars: The Last Druid
    Страна: Канада, Япония
    Жанр: фантастика, боевик, триллер
    Год выпуска: 2014
    Продолжительность: 0131:54-Перевод: Одноголосный закадровый Xixidok
    Cубтитры: нет
    Оригинальная аудиодорожка: нет-Режиссер: Мамору Осии / Mamoru Oshii-В ролях: Лэнс Хенриксен, Кевин Дюран, Мелани Сен-Пьерр, Саммер Х Хауэлл, Доун Форд, Эндрю Гиллис, Джордан Дик, Дэвид-Александр Куатё-Описание: События в фильме происходят в мире, известном как Аннвн. В нем не стихают войны гармов — кровавые и разрушительные сражения между тремя воинствующими племенами, в которых воюют клонированные солдаты. В своих битвах те используют силы воздуха, земли и технологии. В какой-то момент одна из клонов Хара понимает для себя, что ей самой не нужна эта битва. Направляемая стремлением узнать больше о своем предназначении в этой жизни, она покидает поле бессмысленной битвы и отправляется в далекий путь.-Сэмпл: http://sendfile.su/1185149
    Качество видео: HDRip (исходник: BDRip/720p)
    Формат видео: AVI
    Видео: 720x304 (2.37:1), 24.000 fps, XviD build 50 ~2074 kbps avg, 0.40 bit/pixel
    Аудио: 48 kHz, AC3 Dolby Digital, 2/0 (L,R) ch, ~192 kbps


    MediaInfo

    Формат : AVI
    Формат/Информация : Audio Video Interleave
    Размер файла : 1,46 Гбайт
    Продолжительность : 1 ч. 31 м.
    Общий поток : 2276 Кбит/сек
    Программа кодирования : VirtualDubMod 1.5.10.2 (build 2540/release)
    Библиотека кодирования : VirtualDubMod build 2540/release
    Видео
    Идентификатор : 0
    Формат : MPEG-4 Visual
    Профиль формата : Advanced Simple@L5
    Параметр BVOP формата : 1
    Параметр QPel формата : Нет
    Параметр GMC формата : Без точки перехода
    Параметр матрицы формата : Default (MPEG)
    Идентификатор кодека : XVID
    Идентификатор кодека/Подсказка : XviD
    Продолжительность : 1 ч. 31 м.
    Битрейт : 2075 Кбит/сек
    Ширина : 720 пикселей
    Высота : 304 пикселя
    Соотношение сторон : 2,35:1
    Частота кадров : 24,000 кадра/сек
    Цветовое пространство : YUV
    Субдискретизация насыщенности : 4:2:0
    Битовая глубина : 8 бит
    Тип развёртки : Прогрессивная
    Метод сжатия : С потерями
    Бит/(Пиксели*Кадры) : 0.395
    Размер потока : 1,33 Гбайт (91%)
    Библиотека кодирования : XviD 1.2.1 (UTC 2008-12-04)
    Аудио
    Идентификатор : 1
    Формат : AC-3
    Формат/Информация : Audio Coding 3
    Расширение режима : CM (complete main)
    Параметр Endianness формата : Big
    Идентификатор кодека : 2000
    Продолжительность : 1 ч. 31 м.
    Вид битрейта : Постоянный
    Битрейт : 192 Кбит/сек
    Каналы : 2 канала
    Расположение каналов : Front: L R
    Частота : 48,0 КГц
    Частота кадров : 31,250 кадров/сек (1536 spf)
    Метод сжатия : С потерями
    Размер потока : 126 Мбайт (8%)
    Выравнивание : Разделение по промежуткам
    Продолжительность промежутка : 42 мс. (1,00 видеокадр)
    Время предзагрузки промежутка : 500 мс.

    Скриншот c названием фильма

    Скриншоты






    Скачать .torrent

    Скачать торрент-файл бесплатно и на максимальной скорости!

    Как скачивать? · Что такое торрент? · Рейтинг и ограничения

    !ВНИМАНИЕ!
    Сайт не распространяет и не хранит электронные версии произведений, а занимается лишь лишь предоставлением доступа к создаваемому пользователями каталогу ссылок на торрент-файлы, которые содержат только списки хеш-сумм, убедительная просьба с жалобами обращаться напрямую к пользователю. Файлы для обмена на трекере предоставлены пользователями сайта, и администрация не несёт ответственности за их содержание. Просьба не заливать файлы, защищенные авторскими правами, а также файлы нелегального содержания!


    _________________
    [Профиль] [ЛС]
    Показать сообщения:    
    Ответить на тему

    Текущее время: Сегодня, в 13:45

    Часовой пояс: GMT + 2



    Вы не можете начинать темы
    Вы не можете отвечать на сообщения
    Вы не можете редактировать свои сообщения
    Вы не можете удалять свои сообщения
    Вы не можете голосовать в опросах
    Вы не можете прикреплять файлы к сообщениям
    Вы не можете скачивать файлы