BitTorrentTracker PerecTracker.org
BitTorrentTracker PerecTracker.org
    
Регистрация  ·  Вход
 
 · 
Забыли пароль?

  • Рога / Horns (Александр Ажа / Alexandre Aja) [2013, США, Канада, фэнтези, триллер, драма, ужасы, HDRip] MVO

    Ответить на тему
     
    Автор Сообщение

    rechyn

    Создавать темы 20-Дек-2015 01:15

           

    [Цитировать]

    Рога / Horns
    Страна: США, Канада
    Жанр: фэнтези, триллер, драма, ужасы
    Год выпуска: 2013
    Продолжительность: 01:59:55
    Перевод: Профессиональный (многоголосый закадровый)
    Cубтитры: нет
    Оригинальная аудиодорожка: нет-Режиссер: Александр Ажа / Alexandre Aja-В ролях: Джуно Темпл, Дэниэл Рэдклифф, Хэзер Грэм, Сабрина Карпентер, Келли Гарнер, Джо Андерсон, Макс Мингелла, Джеймс Римар, Дэвид Морс, Кэтлин Куинлен-Описание: История простого американского парня по имени Иг Перриш, который просыпается рано утром с диким похмельем и обнаруживает, что у него на голове выросли настоящие рога.
    Вместе с рогами у героя появляется еще одно дьявольское качество: в присутствии Перриша люди начинают говорить то, что думают на самом деле, и все грязные секреты оказываются на поверхности. Теперь Иг может узнать, кто на самом деле убил его девушку, поскольку в этом преступлении обвиняют его самого, хоть и бездоказательно.-Качество видео: HDRip
    Формат видео: AVI
    Видео: 688x288 (2.39:1), 23.976 fps, XviD build 73 ~731 kbps avg, 0.15 bit/pixel
    Аудио: 48 kHz, MPEG Layer 3, 2 ch, ~128.00 kbps avg-Скачать сэмпл-

    MediaInfo

    Format                      : AVI
    Format/Info                 : Audio Video Interleave
    File size                   : 745 MiB
    Duration                    : 1h 59mn
    Overall bit rate            : 869 Kbps
    Writing application         : VirtualDubMod 1.5.10.2 (build 2540/release)
    Writing library             : VirtualDubMod build 2540/release
    Video
    ID                          : 0
    Format                      : MPEG-4 Visual
    Format profile              : Advanced Simple@L5
    Format settings, BVOP       : 1
    Format settings, QPel       : No
    Format settings, GMC        : No warppoints
    Format settings, Matrix     : Custom
    Codec ID                    : XVID
    Codec ID/Hint               : XviD
    Duration                    : 1h 59mn
    Bit rate                    : 732 Kbps
    Width                       : 688 pixels
    Height                      : 288 pixels
    Display aspect ratio        : 2.40:1
    Frame rate                  : 23.976 (23976/1000) fps
    Color space                 : YUV
    Chroma subsampling          : 4:2:0
    Bit depth                   : 8 bits
    Scan type                   : Progressive
    Compression mode            : Lossy
    Bits/(Pixel*Frame)          : 0.154
    Stream size                 : 628 MiB (84%)
    Writing library             : XviD 73
    Audio
    ID                          : 1
    Format                      : MPEG Audio
    Format version              : Version 1
    Format profile              : Layer 3
    Codec ID                    : 55
    Codec ID/Hint               : MP3
    Duration                    : 1h 59mn
    Bit rate mode               : Constant
    Bit rate                    : 128 Kbps
    Channel(s)                  : 2 channels
    Sampling rate               : 48.0 KHz
    Compression mode            : Lossy
    Stream size                 : 110 MiB (15%)
    Alignment                   : Aligned on interleaves
    Interleave, duration        : 42 ms (1.00 video frame)
    Interleave, preload duratio : 504 ms
    Writing library             : LAME3.99r
    Encoding settings           : -m s -V 4 -q 2 -lowpass 17 -b 128

    Скриншоты

    Скачать .torrent

    Скачать торрент-файл бесплатно и на максимальной скорости!

    Как скачивать? · Что такое торрент? · Рейтинг и ограничения

    !ВНИМАНИЕ!
    Сайт не распространяет и не хранит электронные версии произведений, а занимается лишь лишь предоставлением доступа к создаваемому пользователями каталогу ссылок на торрент-файлы, которые содержат только списки хеш-сумм, убедительная просьба с жалобами обращаться напрямую к пользователю. Файлы для обмена на трекере предоставлены пользователями сайта, и администрация не несёт ответственности за их содержание. Просьба не заливать файлы, защищенные авторскими правами, а также файлы нелегального содержания!


    _________________
    [Профиль] [ЛС]
    Показать сообщения:    
    Ответить на тему

    Текущее время: Сегодня, в 22:25

    Часовой пояс: GMT + 2



    Вы не можете начинать темы
    Вы не можете отвечать на сообщения
    Вы не можете редактировать свои сообщения
    Вы не можете удалять свои сообщения
    Вы не можете голосовать в опросах
    Вы не можете прикреплять файлы к сообщениям
    Вы не можете скачивать файлы