BitTorrentTracker PerecTracker.org
BitTorrentTracker PerecTracker.org
    
Регистрация  ·  Вход
 
 · 
Забыли пароль?

  • [ATV3] Зеленая карета (Олег Асадулин) [2015, Россия, Драма, WEB-DL, HD (1080p)] Original

    Ответить на тему
     
    Автор Сообщение

    Flirldrerve

    Создавать темы 19-Дек-2015 21:03

           

    [Цитировать]

    Зеленая карета
    «Жизнь - это совсем другое кино»
    6.189 / 10
    -Год выпуска: 2015
    Страна: Россия
    Жанр: Драма
    Продолжительность: 01:30:27
    Перевод: Не требуется
    Оригинальная аудиодорожка: Есть
    Cубтитры: Нет
    Режиссёр: Олег Асадулин
    Сценарий: Артем Виткин
    Продюсер: Ренат Давлетьяров, Андрей Алькема, Григорий Подземельный
    Оператор: Андрей Иванов
    Композитор: DJ Грув
    Художник: Ольга Цыба
    Монтаж: Екатерина Пивнева
    В ролях: Андрей Мерзликин, Виктория Исакова, Александр Мичков, Сергей Юшкевич, Владимир Меньшов, Анна Чиповская, Ян Цапник, Женя Малахова, Дмитрий Астрахан, Андрей Леонов
    Бюджет: $1 500 000
    Сборы в России: $40 840
    Премьера (РФ): 26 ноября 2015, «25th Floor Film»
    Описание: Вадим Раевский — известный режиссер, у которого есть все: деньги, красивые женщины, всеобщее признание. Его новый фильм даже выдвигают на «Оскар». Казалось, удача сама преследует его, но всегда ли она будет к нему благосклонна? Буквально в один миг его привычный мир рушится. Вадим пытается разобраться в случившемся, но чем дальше он заходит в своем расследовании, тем больше шокирующих подробностей ему открывается…-Качество исходника: WEB-DL 1080p (NNMClub)
    Качество: WEB-DL
    Тип: HD (1080p)
    Контейнер: M4V
    Видео: H.264, 1920x802, 2.40:1, 4 504 Kbps, 25.000 fps
    Аудио 1: Русский/Оригинальная дорожка , AAC / 2.0 / 157 Kbps / 48.0 KHz
    Аудио 2: Русский/Оригинальная дорожка , AC-3 / 5.1 / 384 Kbps / 48.0 KHz
    -

    iTunes Meta Tags

    Sort Name: Зеленая карета
    XID: Apple:vendor_id:2015-839018
    contentID: 1064130779
    Screenwriters: Артем Виткин
    Producers: Ренат Давлетьяров, Андрей Алькема, Григорий Подземельный
    Director: Олег Асадулин
    Cast: Андрей Мерзликин, Виктория Исакова, Александр Мичков, Сергей Юшкевич, Владимир Меньшов, Анна Чиповская, Ян Цапник, Женя Малахова, Дмитрий Астрахан, Андрей Леонов
    Studio: Аристократ, Пропеллер Продакшен, Реал-Дакота, Революция Фильм
    Rating: 135
    Long Description: Вадим Раевский - известный режиссер, у которого есть все: деньги, красивые женщины, всеобщее признание. Его новый фильм даже выдвигают на "Оскар". Казалось, удача сама преследует его, но всегда ли она будет к нему благосклонна? Буквально в один миг его привычный мир рушится. Вадим пытается разобраться в случившемся, но чем дальше он заходит в своем расследовании, тем больше шокирующих подробностей ему открывается...
    Description: Вадим Раевский - известный режиссер, у которого есть все: деньги, красивые женщины, всеобщее признание. Его новый фильм даже выдвигают на "Оскар". Казалось, удача сама преследует его, но всегда ли она будет к нему благосклонна? Буквально в один миг его привычный мир рушится. Вадим пытается разобраться в случившемся, но чем дальше он заходит в своем расследовании, тем больше шокирующих подробностей ему открывается...
    Release Date: 2015-01-01T08:00:00Z
    Genre: Русское кино
    Artist: Олег Асадулин
    Name: Зеленая карета

    MediaInfo

    General
    Complete name : /Users/imac/HandBrake/Zelenay.kareta.WEB-DL.1080p.m4v
    Format : MPEG-4
    Codec ID : M4V
    File size : 3.19 GiB
    Duration : 1h 30mn
    Overall bit rate mode : Variable
    Overall bit rate : 5 052 Kbps
    Movie name : Зеленая карета
    Performer : Олег Асадулин
    Director : Олег Асадулин
    Actor : Андрей Мерзликин / Виктория Исакова / Александр Мичков / Сергей Юшкевич / Владимир Меньшов / Анна Чиповская / Ян Цапник / Женя Малахова / Дмитрий Астрахан / Андрей Леонов
    Screenplay by : Артем Виткин
    Producer : Ренат Давлетьяров / Андрей Алькема / Григорий Подземельный
    Production studio : Аристократ, Пропеллер Продакшен, Реал-Дакота, Революция Фильм
    Genre : Русское кино
    ContentType : Short Film
    Description : Вадим Раевский - известный режиссер, у которого есть все: деньги, красивые женщины, всеобщее признание. Его новый фильм даже выдвигают на "Оскар". Казалось, удача сама преследует его, но всегда ли она будет к нему благосклонна? Буквально в один миг его привычный мир рушится. Вадим пытается разобраться в случившемся, но чем дальше он заходит в своем расследовании, тем больше шокирующих подробностей ему открывается...
    Recorded date : UTC 2015-01-01 08:00:00
    Encoded date : UTC 2015-12-19 09:52:56
    Tagged date : UTC 2015-12-19 09:59:52
    Cover : Yes
    Rating : None
    Title/Sort : Зеленая карета
    LongDescription : Вадим Раевский - известный режиссер, у которого есть все: деньги, красивые женщины, всеобщее признание. Его новый фильм даже выдвигают на "Оскар". Казалось, удача сама преследует его, но всегда ли она будет к нему благосклонна? Буквально в один миг его привычный мир рушится. Вадим пытается разобраться в случившемся, но чем дальше он заходит в своем расследовании, тем больше шокирующих подробностей ему открывается...
    AppleStoreCatalogID : 1064130779
    Vendor : Apple:vendor_id:2015-839018
    ContentRating : ru-movie|16+|375|
    Video #1
    ID : 1
    Format : AVC
    Format/Info : Advanced Video Codec
    Format profile : High@L4
    Format settings, CABAC : Yes
    Format settings, ReFrames : 5 frames
    Codec ID : avc1
    Codec ID/Info : Advanced Video Coding
    Duration : 1h 30mn
    Bit rate : 4 504 Kbps
    Width : 1 920 pixels
    Height : 802 pixels
    Display aspect ratio : 2.40:1
    Frame rate mode : Constant
    Frame rate : 25.000 fps
    Color space : YUV
    Chroma subsampling : 4:2:0
    Bit depth : 8 bits
    Scan type : Progressive
    Bits/(Pixel*Frame) : 0.117
    Stream size : 2.85 GiB (89%)
    Title : Main Program
    Language : Russian
    Encoded date : UTC 2015-12-19 09:52:56
    Tagged date : UTC 2015-12-19 09:53:32
    Color range : Limited
    Color primaries : BT.709
    Transfer characteristics : BT.709
    Matrix coefficients : BT.709
    Menus : 4,5
    Video #2
    ID : 5
    Format : JPEG
    Codec ID : jpeg
    Duration : 1h 30mn
    Bit rate mode : Variable
    Bit rate : 738 bps
    Width : 640 pixels
    Height : 267 pixels
    Display aspect ratio : 2.40:1
    Frame rate mode : Variable
    Frame rate : 0.003 fps
    Minimum frame rate : 0.002 fps
    Maximum frame rate : 0.003 fps
    Color space : YUV
    Chroma subsampling : 4:2:0
    Bit depth : 8 bits
    Compression mode : Lossy
    Bits/(Pixel*Frame) : 1.440
    Stream size : 451 KiB (0%)
    Title : Chapter Images
    Language : Russian
    Default : No
    Encoded date : UTC 2015-12-19 09:53:37
    Tagged date : UTC 2015-12-19 09:53:37
    Menu For : 1
    Audio #1
    ID : 2
    Format : AAC
    Format/Info : Advanced Audio Codec
    Format profile : LC
    Codec ID : 40
    Duration : 1h 30mn
    Bit rate mode : Variable
    Bit rate : 157 Kbps
    Maximum bit rate : 224 Kbps
    Channel(s) : 2 channels
    Channel positions : Front: L R
    Sampling rate : 48.0 KHz
    Frame rate : 46.875 fps (1024 spf)
    Compression mode : Lossy
    Stream size : 102 MiB (3%)
    Title : Russian Stereo
    Language : Russian
    Default : Yes
    Alternate group : 1
    Encoded date : UTC 2015-12-19 09:52:56
    Tagged date : UTC 2015-12-19 09:53:01
    Fallback From : 3
    Audio #2
    ID : 3
    Format : AC-3
    Format/Info : Audio Coding 3
    Mode extension : CM (complete main)
    Format settings, Endianness : Big
    Codec ID : ac-3
    Duration : 1h 30mn
    Bit rate mode : Constant
    Bit rate : 384 Kbps
    Channel(s) : 6 channels
    Channel positions : Front: L C R, Side: L R, LFE
    Sampling rate : 48.0 KHz
    Frame rate : 31.250 fps (1536 spf)
    Bit depth : 16 bits
    Compression mode : Lossy
    Stream size : 248 MiB (8%)
    Title : Russian DD 5.1
    Language : Russian
    Default : Inherited From: 2
    Alternate group : 1
    Encoded date : UTC 2015-12-19 09:52:56
    Tagged date : UTC 2015-12-19 09:52:59
    Fallback To : 2
    Menu #1
    00:00:00.000 : Глава 1
    00:05:25.000 : Глава 2
    00:11:14.000 : Глава 3
    00:16:42.000 : Глава 4
    00:22:20.000 : Глава 5
    00:27:38.000 : Глава 6
    00:33:00.000 : Глава 7
    00:39:33.000 : Глава 8
    00:45:51.000 : Глава 9
    00:51:44.000 : Глава 10
    00:58:18.000 : Глава 11
    01:04:33.000 : Глава 12
    01:10:17.000 : Глава 13
    01:15:40.000 : Глава 14
    01:21:59.000 : Глава 15
    Menu #2
    ID : 4
    Codec ID : text
    Duration : 1h 30mn
    Language : Russian
    Encoded date : UTC 2015-12-19 09:53:33
    Tagged date : UTC 2015-12-19 09:53:33
    Menu For : 1
    00:00:00.000 : Глава 1
    00:05:25.000 : Глава 2
    00:11:14.000 : Глава 3
    00:16:42.000 : Глава 4
    00:22:20.000 : Глава 5
    00:27:38.000 : Глава 6
    00:33:00.000 : Глава 7
    00:39:33.000 : Глава 8
    00:45:51.000 : Глава 9
    00:51:44.000 : Глава 10
    00:58:18.000 : Глава 11
    01:04:33.000 : Глава 12
    01:10:17.000 : Глава 13
    01:15:40.000 : Глава 14
    01:21:59.000 : Глава 15
    Bit rate mode : VBR

    Скриншоты

    -

    Релиз подготовлен для просмотра на Apple TV, iPad, iPhone, iPod Touch.
    Для просмотра данного релиза на компьютере с ОС Windows рекомендуется использовать VLC media player
    Скачать .torrent

    Скачать торрент-файл бесплатно и на максимальной скорости!

    Как скачивать? · Что такое торрент? · Рейтинг и ограничения

    !ВНИМАНИЕ!
    Сайт не распространяет и не хранит электронные версии произведений, а занимается лишь лишь предоставлением доступа к создаваемому пользователями каталогу ссылок на торрент-файлы, которые содержат только списки хеш-сумм, убедительная просьба с жалобами обращаться напрямую к пользователю. Файлы для обмена на трекере предоставлены пользователями сайта, и администрация не несёт ответственности за их содержание. Просьба не заливать файлы, защищенные авторскими правами, а также файлы нелегального содержания!


    _________________
    [Профиль] [ЛС]
    Показать сообщения:    
    Ответить на тему

    Текущее время: Сегодня, в 20:54

    Часовой пояс: GMT + 2



    Вы не можете начинать темы
    Вы не можете отвечать на сообщения
    Вы не можете редактировать свои сообщения
    Вы не можете удалять свои сообщения
    Вы не можете голосовать в опросах
    Вы не можете прикреплять файлы к сообщениям
    Вы не можете скачивать файлы