BitTorrentTracker PerecTracker.org
BitTorrentTracker PerecTracker.org
    
Регистрация  ·  Вход
 
 · 
Забыли пароль?

  • Французький транзит / La French (Седрік Хіменес) [2014 р., екшн, кримінальний, трилер, BDRip] MVO (MEGOGO.NET) Ukr

    Ответить на тему
     
    Автор Сообщение

    older

    Создавать темы 18-Дек-2015 20:32

           

    [Цитировать]

    Французький транзит / La French

    Рік випуску: 2014
    Країна: Франція, Бельгія
    Кіностудія / кінокомпанія: Gaumont, Legende Films, France 2 Cinema
    Жанр: екшн, кримінальний, трилер
    Тривалість: 02:15:35
    Субтитри: відсутні
    Переклад: багатоголосий, закадровий (професійний) - MEGOGO.NET
    Аудіодоріжка: українська-Режисер: Седрік Хіменес
    Сценарій: Одрі Диван, Седрік Жіменес
    Продюсер: Ексель Декіс, Ванесса Джиан, Ален Голдман-Світова прем'єра: 10 вересня 2014
    Прем'єра в Україні: 28 травня 2015, «TFD Film Ukraine»
    Обмеження за віком: немає- -Актори: Жан Дюжарден, Жиль Леллуш, Селін Саллетт, Мелані Дотей, Бенуа Мажимель, Ґійом Ґуі, Бруно Тодескіні, Федір Аткін, Мусса Мааскрі, П'єр Лопез-Сюжет: Реальна історія злочинного синдикату «Французький зв'язковий», що лютує в 70-х роках. Підпільна організація була особливо відома міжнародним трафіком героїну. Марсель. 1975 рік. Молодий П'єр Мішель разом з дружиною і дітьми переїжджає з Меца і призначається суддею з особливо тяжких злочинів. Він вирішує розібратися з мафіозною мережею, яка два десятиліття постачає вулиці США і всього світу героїном під керівництвом знакової постаті кримінальної сфери і недоторканного хрещеного батька безжального Ґаетана Зампи. Але він швидко розуміє, що для отримання результатів йому доведеться змінити свої методи.-Формат: AVI
    Якість: BDRip
    Відео кодек: XviD
    Відео: 720x304 (2,35:1), 1328 kbps, 23.976 fps, 0.253 bit/pixel
    Аудіо : AC3, 48 kHz, 2 ch, 192 kbps-Джерело:

    MediaInfo

    Общее
    Полное имя                               : \La French (2014) BDRip [ukr] [Hurtom].avi
    Формат                                   : AVI
    Формат/Информация                        : Audio Video Interleave
    Размер файла                             : 1,45 Гбайт
    Продолжительность                        : 2 ч. 15 м.
    Общий поток                              : 1529 Кбит/сек
    Программа кодирования                    : VirtualDubModUkr 1.5.10.2 (build 2542/release)
    Библиотека кодирования                   : VirtualDubMod build 2542/release
    Видео
    Идентификатор                            : 0
    Формат                                   : MPEG-4 Visual
    Профиль формата                          : Advanced Simple@L5
    Параметр BVOP формата                    : 1
    Параметр QPel формата                    : Нет
    Параметр GMC формата                     : Без точки перехода
    Параметр матрицы формата                 : Выборочная
    Идентификатор кодека                     : XVID
    Идентификатор кодека/Подсказка           : XviD
    Продолжительность                        : 2 ч. 15 м.
    Битрейт                                  : 1328 Кбит/сек
    Ширина                                   : 720 пикселей
    Высота                                   : 304 пикселя
    Соотношение сторон                       : 2,35:1
    Частота кадров                           : 24,000 кадра/сек
    Цветовое пространство                    : YUV
    Субдискретизация насыщенности            : 4:2:0
    Битовая глубина                          : 8 бит
    Тип развёртки                            : Прогрессивная
    Метод сжатия                             : С потерями
    Бит/(Пиксели*Кадры)                      : 0.253
    Размер потока                            : 1,26 Гбайт (87%)
    Библиотека кодирования                   : XviD 73
    Аудио
    Идентификатор                            : 1
    Формат                                   : AC-3
    Формат/Информация                        : Audio Coding 3
    Расширение режима                        : CM (complete main)
    Параметр Endianness формата              : Big
    Идентификатор кодека                     : 2000
    Продолжительность                        : 2 ч. 15 м.
    Вид битрейта                             : Постоянный
    Битрейт                                  : 192 Кбит/сек
    Каналы                                   : 2 канала
    Расположение каналов                     : Front: L R
    Частота                                  : 48,0 КГц
    Битовая глубина                          : 16 бит
    Метод сжатия                             : С потерями
    Размер потока                            : 186 Мбайт (13%)
    Выравнивание                             : Разделение по промежуткам
    Продолжительность промежутка             : 42  мс. (1,00 видеокадр)
    Время предзагрузки промежутка            : 500  мс.

    Скріншоти

    Скачать .torrent

    Скачать торрент-файл бесплатно и на максимальной скорости!

    Как скачивать? · Что такое торрент? · Рейтинг и ограничения

    !ВНИМАНИЕ!
    Сайт не распространяет и не хранит электронные версии произведений, а занимается лишь лишь предоставлением доступа к создаваемому пользователями каталогу ссылок на торрент-файлы, которые содержат только списки хеш-сумм, убедительная просьба с жалобами обращаться напрямую к пользователю. Файлы для обмена на трекере предоставлены пользователями сайта, и администрация не несёт ответственности за их содержание. Просьба не заливать файлы, защищенные авторскими правами, а также файлы нелегального содержания!


    _________________
    [Профиль] [ЛС]

    -746

    Создавать темы 03-Июн-2016 21:40 (спустя 5 месяцев 16 дней)

           

    Топік був перенесений з форуму Закордонне кіно українською у форум Фільми 2011-2015 українською

    rechyn

    _________________
    Как бы ты высоко не летал, не забывай, с кем ты ползал..
     
    Показать сообщения:    
    Ответить на тему

    Текущее время: Сегодня, в 06:57

    Часовой пояс: GMT + 2



    Вы не можете начинать темы
    Вы не можете отвечать на сообщения
    Вы не можете редактировать свои сообщения
    Вы не можете удалять свои сообщения
    Вы не можете голосовать в опросах
    Вы не можете прикреплять файлы к сообщениям
    Вы не можете скачивать файлы