BitTorrentTracker PerecTracker.org
BitTorrentTracker PerecTracker.org
    
Регистрация  ·  Вход
 
 · 
Забыли пароль?

  • Убийство кота / Murder of a Cat (Джиллиан Грин / Gillian Greene) [2014, США, триллер, комедия, WEB-DLRip] DVO

    Ответить на тему
     
    Автор Сообщение

    Light

    Создавать темы 18-Дек-2015 19:56

           

    [Цитировать]

    Убийство кота / Murder of a Cat
    Страна: США
    Жанр: триллер, комедия
    Год выпуска: 2014
    Продолжительность: 01:41:08
    Перевод: Профессиональный (двухголосый закадровый)
    Cубтитры: нет

    Режиссер: Джиллиан Грин / Gillian Greene
    В ролях: Фрэн Кранц, Никки Рид, Дж.К. Симмонс, Блайт Даннер, Грег Киннер, Леонардо Нам, Тед Рэйми, Карла Хименес, Дилип Рао, Дебра Кристофферсон
    Описание: Настало время всему свету познакомиться с повествованием о коте, у которого, как у иных супергероев, была двойная жизнь. Кот главного героя, молодого хозяина вечно пропадал, но однажды, исчез из дома на совсем. Естественно, молодой человек полагал, что он всего лишь навсего ходит на прогулки, как полагается. Истина представилась куда менее приятной: с его любимцем некто жестоко расправился и убил. Хозяину приходится самостоятельно в подробностях выяснять, что случилось и по каким причинам. В процессе "расследования" он обнаруживает, что жизнь его кота была весьма необычна и любопытна. Неожиданно для себя, главный герой узнал, что у его питомца была ещё хозяйка. Она глубоко переживает и плохо справляется с гибелью кота. Эта хозяйка - девушка Грета. Её замешательству тоже не было предела, как и замешательству хозяина, когда она узнала, что тоже не "единственный друг" любимца. Однако остаётся нерешенной главная проблема: кто мог совершить такое зверство и убить невинное беззащитное животное? Довольно острый сюжет с элементами триллера подогревается тем, что по замыслу режиссёра, Джиллиан Грин, фильм - черная комедия. Необычный сценарий, своеобразную динамку фильма дополнит прелестная игра Френка Канца.
    Качество видео: WEB-DLRip
    Формат видео: AVI
    Видео: 720x400 (1.80:1), 23.976 fps, XviD build 73 ~1668 kbps avg, 0.24 bit/pixel
    Аудио: 48 kHz, AC3 Dolby Digital, 3/2 (L,C,R,l,r) + LFE ch, ~384 kbps

    MediaInfo

    Общее
    Полное имя : H:\Murder.of.a.Cat.2014.web-dlrip_[1.46]_[teko].avi
    Формат : AVI
    Формат/Информация : Audio Video Interleave
    Размер файла : 1,46 Гбайт
    Продолжительность : 1 ч. 41 м.
    Общий поток : 2062 Кбит/сек
    Программа кодирования : VirtualDubMod 1.5.10.3 | www.virtualdub-fr.org || (build 2550/release)
    Библиотека кодирования : VirtualDubMod build 2550/release
    Видео
    Идентификатор : 0
    Формат : MPEG-4 Visual
    Профиль формата : Advanced Simple@L5
    Параметр BVOP формата : 1
    Параметр QPel формата : Нет
    Параметр GMC формата : Без точки перехода
    Параметр матрицы формата : Выборочная
    Идентификатор кодека : XVID
    Идентификатор кодека/Подсказка : XviD
    Продолжительность : 1 ч. 41 м.
    Битрейт : 1669 Кбит/сек
    Ширина : 720 пикселей
    Высота : 400 пикселей
    Соотношение сторон : 16:9
    Частота кадров : 23,976 кадра/сек
    Цветовое пространство : YUV
    Субдискретизация насыщенности : 4:2:0
    Битовая глубина : 8 бит
    Тип развёртки : Прогрессивная
    Метод сжатия : С потерями
    Бит/(Пиксели*Кадры) : 0.242
    Размер потока : 1,18 Гбайт (81%)
    Библиотека кодирования : XviD 73
    Аудио
    Идентификатор : 1
    Формат : AC-3
    Формат/Информация : Audio Coding 3
    Расширение режима : CM (complete main)
    Параметр Endianness формата : Big
    Идентификатор кодека : 2000
    Продолжительность : 1 ч. 41 м.
    Вид битрейта : Постоянный
    Битрейт : 384 Кбит/сек
    Каналы : 6 каналов
    Расположение каналов : Front: L C R, Side: L R, LFE
    Частота : 48,0 КГц
    Битовая глубина : 16 бит
    Метод сжатия : С потерями
    Размер потока : 278 Мбайт (19%)
    Выравнивание : Разделение по промежуткам
    Продолжительность промежутка : 42 мс. (1,00 видеокадр)
    Время предзагрузки промежутка : 500 мс.

    Скриншоты

    Релиз группы:

    -
    -
    Скачать .torrent

    Скачать торрент-файл бесплатно и на максимальной скорости!

    Как скачивать? · Что такое торрент? · Рейтинг и ограничения

    !ВНИМАНИЕ!
    Сайт не распространяет и не хранит электронные версии произведений, а занимается лишь лишь предоставлением доступа к создаваемому пользователями каталогу ссылок на торрент-файлы, которые содержат только списки хеш-сумм, убедительная просьба с жалобами обращаться напрямую к пользователю. Файлы для обмена на трекере предоставлены пользователями сайта, и администрация не несёт ответственности за их содержание. Просьба не заливать файлы, защищенные авторскими правами, а также файлы нелегального содержания!


    _________________
    [Профиль] [ЛС]
    Показать сообщения:    
    Ответить на тему

    Текущее время: Сегодня, в 14:45

    Часовой пояс: GMT + 2



    Вы не можете начинать темы
    Вы не можете отвечать на сообщения
    Вы не можете редактировать свои сообщения
    Вы не можете удалять свои сообщения
    Вы не можете голосовать в опросах
    Вы не можете прикреплять файлы к сообщениям
    Вы не можете скачивать файлы