BitTorrentTracker PerecTracker.org
BitTorrentTracker PerecTracker.org
    
Регистрация  ·  Вход
 
 · 
Забыли пароль?

  • Прогулка / The Walk (Роберт Земекис / Robert Zemeckis ) [2015, США, Триллер, драма, приключения, биография, WEB-DL, HD (720p)] DUB + Original + sub ( rus, eng)

    Ответить на тему
     
    Автор Сообщение

    Flirldrerve

    Создавать темы 18-Дек-2015 19:56

           

    [Цитировать]

    Прогулка / The Walk
    «Every dream begins with a single step»
    7.504 / 10 7.60 / 10
    -Год выпуска: 2015
    Страна: США
    Жанр: Триллер, драма, приключения, биография
    Продолжительность: 02:03:09
    Перевод: Дублированный (iTunes)
    Оригинальная аудиодорожка: Есть
    Cубтитры: Русские форсированные, Английские форсированные, Русские, Английские
    Режиссёр: Роберт Земекис
    Сценарий: Роберт Земекис, Кристофер Браун, Филипп Пети
    Продюсер: Джек Рэпк, Том Ротман, Стив Старки
    Оператор: Дариуш Вольски
    Композитор: Алан Сильвестри
    Художник: Наоми Шохан, Феликс Ларивьер-Шаррон, Суттират Энн Ларларб
    Монтаж: Джереми О’Дрискол
    В ролях: Джозеф Гордон-Левитт, Бен Кингсли, Стив Валентайн, Шарлотта Ле Бон, Джеймс Бэдж Дэйл, Бен Шварц, Бенедикт Сэмюэл, Мизинга Мвинга, Дэниэл Аррош, Джейсон Делайн
    Бюджет: $35 000 000
    Сборы в США: $9 878 767
    Сборы в России: $5 395 997
    Мировая премьера: 26 сентября 2015
    Премьера (РФ): 22 октября 2015, «WDSSPR»
    Релиз на DVD: 14 января 2016, «CP Дистрибуция»
    Описание: Вы боитесь высоты? А можете представить себя идущим по натянутому канату на высоте более 400м без всякой страховки? Потоки ветра обдувают вас, а внизу — город и тысячи взволнованных взглядов, устремленных вверх.
    История о том, как французский канатоходец Филипп Пети отважился совершить легендарный трюк - пройти без страховки по канату, натянутому между небоскребами в Нью-Йорке.-Качество исходника: WEB-DL 720p (HDClub)
    Качество: WEB-DL
    Тип: HD (720p)
    Контейнер: M4V
    Видео: H.264, 1280x532, 2.40:1, 4 027 Kbps, 23.976 (23976/1000) fps
    Аудио 1: Русский/Дублированный (iTunes), AAC / 2.0 / 158 Kbps / 48.0 KHz
    Аудио 2: Английский/Оригинальная дорожка , AAC / 2.0 / 157 Kbps / 48.0 KHz
    Аудио 3: Русский/Дублированный (iTunes), AC-3 / 5.1 / 384 Kbps / 48.0 KHz
    Субтитры 1: Русские форсированные
    Субтитры 2: Английские форсированные
    Субтитры 3: Русские полные
    Субтитры 4: Английские полные
    -

    iTunes Meta Tags

    Sort Name: Walk
    XID: Apple:vendor_id:2015-829368
    contentID: 1039596794
    Screenwriters: Роберт Земекис, Кристофер Браун, Филипп Пети
    Producers: Джек Рэпк, Том Ротман, Стив Старки
    Director: Роберт Земекис
    Cast: Джозеф Гордон-Левитт, Бен Кингсли, Стив Валентайн, Шарлотта Ле Бон, Джеймс Бэдж Дэйл, Бен Шварц, Бенедикт Сэмюэл, Мизинга Мвинга, Дэниэл Аррош, Джейсон Делайн, Илья Бледный, Никита Прозоровский, Михаил Шац, Мария Иващенко, Даниил Эльдаров
    Studio: TriStar Productions, Inc.
    Rating: 3
    Long Description: Вы боитесь высоты? А можете представить себя идущим по натянутому канату на высоте более 400м без всякой страховки? Потоки ветра обдувают вас, а внизу - город и тысячи взволнованных взглядов, устремленных вверх.
    История о том, как французский канатоходец Филипп Пети отважился совершить легендарный трюк - пройти без страховки по канату, натянутому между небоскребами в Нью-Йорке.
    Description: Вы боитесь высоты? А можете представить себя идущим по натянутому канату на высоте более 400м без всякой страховки? Потоки ветра обдувают вас, а внизу - город и тысячи взволнованных взглядов, устремленных вверх.
    История о том, как французский канатоходец Филипп Пети отважился совершить легендарный трюк - пройти без страховки по канату, натянутому между небоскребами в Нью-Йорке.
    Release Date: 2015-09-26T08:00:00Z
    Genre: Drama
    Artist: Robert Zemeckis
    Name: The Walk

    MediaInfo

    General
    Complete name : /Users/imac/HandBrake/The.Walk.720p.WEB-DL.m4v
    Format : MPEG-4
    Codec ID : M4V
    File size : 4.07 GiB
    Duration : 2h 3mn
    Overall bit rate mode : Variable
    Overall bit rate : 4 735 Kbps
    Movie name : The Walk
    Performer : Robert Zemeckis
    Director : Роберт Земекис
    Actor : Джозеф Гордон-Левитт / Бен Кингсли / Стив Валентайн / Шарлотта Ле Бон / Джеймс Бэдж Дэйл / Бен Шварц / Бенедикт Сэмюэл / Мизинга Мвинга / Дэниэл Аррош / Джейсон Делайн / Илья Бледный / Никита Прозоровский / Михаил Шац / Мария Иващенко / Даниил Эльдаров
    Screenplay by : Роберт Земекис / Кристофер Браун / Филипп Пети
    Producer : Джек Рэпк / Том Ротман / Стив Старки
    Production studio : TriStar Productions, Inc.
    Genre : Drama
    ContentType : Short Film
    Description : Вы боитесь высоты? А можете представить себя идущим по натянутому канату на высоте более 400м без всякой страховки? Потоки ветра обдувают вас, а внизу - город и тысячи взволнованных взглядов, устремленных вверх. / История о том, как французский канатоходец Филипп Пети отважился совершить легендарный трюк - пройти без страховки по канату, натянутому между небоскребами в Нью-Йорке.
    Recorded date : UTC 2015-09-26 08:00:00
    Encoded date : UTC 2015-12-18 09:21:26
    Tagged date : UTC 2015-12-18 09:24:35
    Cover : Yes
    Rating : None
    Title/Sort : Walk
    LongDescription : Вы боитесь высоты? А можете представить себя идущим по натянутому канату на высоте более 400м без всякой страховки? Потоки ветра обдувают вас, а внизу - город и тысячи взволнованных взглядов, устремленных вверх. / История о том, как французский канатоходец Филипп Пети отважился совершить легендарный трюк - пройти без страховки по канату, натянутому между небоскребами в Нью-Йорке.
    HDVideo : Yes
    AppleStoreCatalogID : 1039596794
    Vendor : Apple:vendor_id:2015-829368
    ContentRating : mpaa|PG|200|
    Video #1
    ID : 1
    Format : AVC
    Format/Info : Advanced Video Codec
    Format profile : Main@L3.1
    Format settings, CABAC : No
    Format settings, ReFrames : 2 frames
    Format settings, GOP : M=2, N=90
    Codec ID : avc1
    Codec ID/Info : Advanced Video Coding
    Duration : 2h 3mn
    Bit rate : 4 027 Kbps
    Width : 1 280 pixels
    Height : 532 pixels
    Display aspect ratio : 2.40:1
    Frame rate mode : Variable
    Frame rate : 23.976 (23976/1000) fps
    Minimum frame rate : 23.810 fps
    Maximum frame rate : 24.390 fps
    Color space : YUV
    Chroma subsampling : 4:2:0
    Bit depth : 8 bits
    Scan type : Progressive
    Bits/(Pixel*Frame) : 0.247
    Stream size : 3.46 GiB (85%)
    Title : Main Program
    Language : English
    Encoded date : UTC 2015-12-18 09:21:26
    Tagged date : UTC 2015-12-18 09:22:22
    Color range : Limited
    Color primaries : BT.709
    Transfer characteristics : BT.709
    Matrix coefficients : BT.709
    Menus : 9,10
    Video #2
    ID : 10
    Format : JPEG
    Codec ID : jpeg
    Duration : 2h 3mn
    Bit rate mode : Variable
    Bit rate : 653 bps
    Width : 640 pixels
    Height : 266 pixels
    Display aspect ratio : 2.40:1
    Frame rate mode : Variable
    Frame rate : 0.002 fps
    Minimum frame rate : 0.001 fps
    Maximum frame rate : 0.004 fps
    Color space : YUV
    Chroma subsampling : 4:2:0
    Bit depth : 8 bits
    Compression mode : Lossy
    Bits/(Pixel*Frame) : 1.918
    Stream size : 637 KiB (0%)
    Title : Chapter Images
    Language : English
    Default : No
    Encoded date : UTC 2015-12-18 09:22:26
    Tagged date : UTC 2015-12-18 09:22:26
    Menu For : 1
    Audio #1
    ID : 2
    Format : AAC
    Format/Info : Advanced Audio Codec
    Format profile : LC
    Codec ID : 40
    Duration : 2h 3mn
    Bit rate mode : Variable
    Bit rate : 158 Kbps
    Maximum bit rate : 222 Kbps
    Channel(s) : 2 channels
    Channel positions : Front: L R
    Sampling rate : 48.0 KHz
    Frame rate : 46.875 fps (1024 spf)
    Compression mode : Lossy
    Stream size : 139 MiB (3%)
    Title : Russian Stereo
    Language : Russian
    Default : Yes
    Alternate group : 1
    Encoded date : UTC 2015-12-18 09:21:26
    Tagged date : UTC 2015-12-18 09:21:33
    Fallback From : 4
    Subtitles : 5,7
    Audio #2
    ID : 3
    Format : AAC
    Format/Info : Advanced Audio Codec
    Format profile : LC
    Codec ID : 40
    Duration : 2h 3mn
    Bit rate mode : Variable
    Bit rate : 157 Kbps
    Maximum bit rate : 238 Kbps
    Channel(s) : 2 channels
    Channel positions : Front: L R
    Sampling rate : 48.0 KHz
    Frame rate : 46.875 fps (1024 spf)
    Compression mode : Lossy
    Stream size : 139 MiB (3%)
    Title : English Stereo
    Language : English
    Default : No
    Alternate group : 1
    Encoded date : UTC 2015-12-18 09:21:26
    Tagged date : UTC 2015-12-18 09:21:33
    Subtitles : 6,8
    Audio #3
    ID : 4
    Format : AC-3
    Format/Info : Audio Coding 3
    Mode extension : CM (complete main)
    Format settings, Endianness : Big
    Codec ID : ac-3
    Duration : 2h 3mn
    Bit rate mode : Constant
    Bit rate : 384 Kbps
    Channel(s) : 6 channels
    Channel positions : Front: L C R, Side: L R, LFE
    Sampling rate : 48.0 KHz
    Frame rate : 31.250 fps (1536 spf)
    Bit depth : 16 bits
    Compression mode : Lossy
    Stream size : 338 MiB (8%)
    Title : Russian DD 5.1
    Language : Russian
    Default : Inherited From: 2
    Alternate group : 1
    Encoded date : UTC 2015-12-18 09:21:26
    Tagged date : UTC 2015-12-18 09:21:33
    Fallback To : 2
    Subtitles : 5,7
    Text #1
    ID : 5
    Format : Timed Text
    Muxing mode : sbtl
    Codec ID : tx3g
    Duration : 1h 57mn
    Bit rate mode : Variable
    Bit rate : 7 bps
    Stream size : 5.74 KiB (0%)
    Title : Russian Forced
    Language : Russian
    Default : Yes
    Forced : Yes
    Alternate group : 2
    Encoded date : UTC 2015-12-18 09:21:26
    Tagged date : UTC 2015-12-18 09:21:33
    Subtitles For : 2,4
    Full Alternative : 7
    Text #2
    ID : 6
    Format : Timed Text
    Muxing mode : sbtl
    Codec ID : tx3g
    Duration : 1h 53mn
    Bit rate mode : Variable
    Bit rate : 4 bps
    Stream size : 3.46 KiB (0%)
    Title : English Forced
    Language : English
    Default : No
    Forced : Yes
    Alternate group : 2
    Encoded date : UTC 2015-12-18 09:21:26
    Tagged date : UTC 2015-12-18 09:21:33
    Subtitles For : 3
    Full Alternative : 8
    Text #3
    ID : 7
    Format : Timed Text
    Muxing mode : sbtl
    Codec ID : tx3g
    Duration : 1h 57mn
    Bit rate mode : Variable
    Bit rate : 112 bps
    Stream size : 95.9 KiB (0%)
    Title : Russian Full
    Language : Russian
    Default : No
    Forced : No
    Alternate group : 2
    Encoded date : UTC 2015-12-18 09:21:26
    Tagged date : UTC 2015-12-18 09:21:33
    Subtitles For : 2,4
    Forced Alternative : 5
    Text #4
    ID : 8
    Format : Timed Text
    Muxing mode : sbtl
    Codec ID : tx3g
    Duration : 1h 55mn
    Bit rate mode : Variable
    Bit rate : 74 bps
    Stream size : 62.3 KiB (0%)
    Title : English Full
    Language : English
    Default : No
    Forced : No
    Alternate group : 2
    Encoded date : UTC 2015-12-18 09:21:26
    Tagged date : UTC 2015-12-18 09:21:33
    Subtitles For : 3
    Forced Alternative : 6
    Menu #1
    00:00:00.000 : 1
    00:05:13.000 : 2
    00:10:04.000 : 3
    00:14:49.000 : 4
    00:23:27.000 : 5
    00:32:18.000 : 6
    00:41:42.000 : 7
    00:46:28.000 : 8
    00:55:33.000 : 9
    01:04:32.000 : 10
    01:11:11.000 : 11
    01:17:34.000 : 12
    01:24:30.000 : 13
    01:33:39.000 : 14
    01:42:14.000 : 15
    01:50:21.000 : 16
    Menu #2
    ID : 9
    Codec ID : text
    Duration : 2h 3mn
    Language : English
    Encoded date : UTC 2015-12-18 09:22:22
    Tagged date : UTC 2015-12-18 09:22:22
    Menu For : 1
    00:00:00.000 : 1
    00:05:13.000 : 2
    00:10:04.000 : 3
    00:14:49.000 : 4
    00:23:27.000 : 5
    00:32:18.000 : 6
    00:41:42.000 : 7
    00:46:28.000 : 8
    00:55:33.000 : 9
    01:04:32.000 : 10
    01:11:11.000 : 11
    01:17:34.000 : 12
    01:24:30.000 : 13
    01:33:39.000 : 14
    01:42:14.000 : 15
    01:50:21.000 : 16
    Bit rate mode : VBR

    Скриншоты

    -

    Релиз подготовлен для просмотра на Apple TV, iPad, iPhone, iPod Touch.
    Для просмотра данного релиза на компьютере с ОС Windows рекомендуется использовать VLC media player
    Скачать .torrent

    Скачать торрент-файл бесплатно и на максимальной скорости!

    Как скачивать? · Что такое торрент? · Рейтинг и ограничения

    !ВНИМАНИЕ!
    Сайт не распространяет и не хранит электронные версии произведений, а занимается лишь лишь предоставлением доступа к создаваемому пользователями каталогу ссылок на торрент-файлы, которые содержат только списки хеш-сумм, убедительная просьба с жалобами обращаться напрямую к пользователю. Файлы для обмена на трекере предоставлены пользователями сайта, и администрация не несёт ответственности за их содержание. Просьба не заливать файлы, защищенные авторскими правами, а также файлы нелегального содержания!


    _________________
    [Профиль] [ЛС]
    Показать сообщения:    
    Ответить на тему

    Текущее время: Сегодня, в 23:22

    Часовой пояс: GMT + 2



    Вы не можете начинать темы
    Вы не можете отвечать на сообщения
    Вы не можете редактировать свои сообщения
    Вы не можете удалять свои сообщения
    Вы не можете голосовать в опросах
    Вы не можете прикреплять файлы к сообщениям
    Вы не можете скачивать файлы