BitTorrentTracker PerecTracker.org
BitTorrentTracker PerecTracker.org
    
Регистрация  ·  Вход
 
 · 
Забыли пароль?

  • Демоны да Винчи / Da Vinci's Demons (Сезон 3, Серия 1-10 из 10) (Дэвид С. Гойер, Джэми Пэйн) [2015 , Драма, приключения, фэнтези , HDTVRip 720p] [MVO] [AlexFilm , LostFilm , English] + [Subs ENG]

    Ответить на тему
     
    Автор Сообщение

    Враг Нароода

    Создавать темы 17-Дек-2015 19:16

           

    [Цитировать]

    ----Демоны да Винчи / Da Vinci's Demons Сезон 3, Серия 1-10 из 10----Год выпуска: 2015
    Выпущено: США, BBC Worldwide Productions
    Жанр: Драма, приключения, фэнтези
    Продолжительность: 00:51:00
    Сезон: 3
    Серии: 1-10
    Количество серий в сезоне: 10
    Озвучка 1 :Многоголосое профессиональное закадровое озвучание - AlexFilm
    Озвучка 2:Многоголосое профессиональное закадровое озвучание - LostFilm
    Субтитры: Русские , Английские --Официальный сайт
    --Режиссер: Дэвид С. Гойер, Джэми Пэйн, Пол Уилмсхерст, Майкл Дж. Бассетт, Питер Хоар, Джастин Молотнович--В ролях:Том Райли (Леонардо да Винчи), Лора Хэддок (Лукреция Донати), Эллиот Кауэн (Лоренцо Медичи), Лара Пюльве (Клариче Орсини), Том Бейтман (Джулиано Медичи), Джеймс Фолкнер (Папа Сикст IV), Эрос Влахос (Нико), Блэйк Ритсон (Джироламо Риарио), Грегг Чиллин (Зороастер), Аллен Корданер (Вероккьо).-- В мире, где мысль и вера находятся под контролем, один человек борется за то, чтобы сделать знания доступными для всех.
    Не рассказанная история трагичной жизни Леонардо Да Винчи раскрывает портрет молодого человека, которого мучает дар гения. Он — еретик, жаждущий раскрыть ложь религии. Бунтарь, стремящийся низвергнуть элитарное общество. Незаконнорожденный сын, требующий от своего отца признания его прав.
    Он оказывается посреди разразившегося урагана страстей, который спал веками. Внутри конфликта между правдой и ложью, религией и интеллектом, прошлым и будущим. Его стремления используются против него противоборствующими силами того времени, вовлекая его в соблазнительную игру, в которой те, кто презирает его ум, нуждаются в нём больше всего.
    Леонардо должен вступить в конфронтацию с теми, кто использует историю, чтобы скрыть истину. Вооружённый лишь собственным гением Да Винчи в одиночку противостоит тьме как внутри, так и снаружи.
    Перед лицом неопределённости будущего его поход за знаниями едва не становится для него погибелью, когда он переходит за грань своего здравомыслия. Да Винчи, словно в омут с головой, уходит в собственные гениальные идеи, воплотив которые, становится необоримой силой, вытаскивающей из темноты и поворачивающей к свету целую эпоху.
    Его история становится зеркалом для нашего мира, зовущее всех нас на бой за Свободное Будущее.
    ----Качество :HDTVRip 720p
    Формат: MKV
    Видео кодек: H264
    Видео: 2577Кбит/сек,1280х720(16.9),в 23.976кадр/сек,AVC(High@L4)(CABAC/5 Ref Frames)
    Аудио Кодек:AC3
    Аудио #1:AC3 , 384 Kbps, 48.0 KHz, 6 ch- - AlexFilm
    Аудио #2: AC3, 384 Kbps, 48.0 KHz, 6 ch - - LostFilm
    Аудио #3: AC3,384 Kbps, 48.0 KHz,6 ch - - English--

    Доп. информация:

    Звуковая дорожка сделана путем наложения чистого голоса озвучивателей на центральный канал оригинальной дорожки. Качество идентично звуковой дорожке.
    --

    Список эпизодов


    01 Вечный безбожник (Semper Infidelis)
    02 0Аббадон (Abbadon)
    03 Образ действия (Modus Operandi)
    04 Лабрис (The Labrys)
    05 Охотник за душами (Anima Venator)
    06 Свобода воли (Liberum Arbitrium)
    07 Взмах крыла (Alis Volat Proplis)
    08 Исповедь машины (La Confessione Della Machina)
    09 Разгневанный ангел (Angelus Iratissimus)
    10 2Гнев Божий (Ira Deorum)
    --

    MediaInfo

    Общее
    Уникальный идентификатор : 253405287218710586209871609142705935562 (0xBEA4154435D4EFF5B00705AACEDC54CA)
    Полное имя : E:\К ИНО\С Е Р И А Л Ы\Демоны да Винчи\Da_Vinci's_Demons_2015_S03_2xRus_Eng[AlexFilm_LostFilm]_H264_DD5.1_N.B_HDTVRip_720p\Da_Vinci's_Demons_2015_S03E01_2xRus_Eng_H264_DD5.1_N.B_HDTVRip_720p.mkv
    Формат : Matroska
    Версия формата : Version 4 / Version 2
    Размер файла : 1,32 Гбайт
    Продолжительность : 50 м.
    Общий поток : 3731 Кбит/сек
    Название фильма : Da_Vinci's_Demons_2015_S03E01_2xRus_Eng_H264_DD5.1_N.B_HDTVRip_720p
    Дата кодирования : UTC 2015-12-01 18:50:16
    Программа кодирования : mkvmerge v8.6.1 ('Flying') 64bit
    Библиотека кодирования : libebml v1.3.3 + libmatroska v1.4.4
    Видео
    Идентификатор : 1
    Формат : AVC
    Формат/Информация : Advanced Video Codec
    Профиль формата : High@L4.1
    Параметр CABAC формата : Да
    Параметр ReFrames формата : 5 кадров
    Идентификатор кодека : V_MPEG4/ISO/AVC
    Продолжительность : 50 м.
    Битрейт : 2577 Кбит/сек
    Ширина : 1280 пикселей
    Высота : 720 пикселей
    Соотношение сторон : 16:9
    Режим частоты кадров : Постоянный
    Частота кадров : 23,976 (24000/1001) кадра/сек
    Цветовое пространство : YUV
    Субдискретизация насыщенности : 4:2:0
    Битовая глубина : 8 бит
    Тип развёртки : Прогрессивная
    Бит/(Пиксели*Кадры) : 0.117
    Размер потока : 931 Мбайт (69%)
    Библиотека кодирования : x264 core 148 r2638 7599210
    Настройки программы : cabac=1 / ref=5 / deblock=1:0:0 / analyse=0x3:0x113 / me=umh / subme=8 / psy=1 / psy_rd=1.00:0.00 / mixed_ref=1 / me_range=16 / chroma_me=1 / trellis=1 / 8x8dct=1 / cqm=0 / deadzone=21,11 / fast_pskip=1 / chroma_qp_offset=-2 / threads=22 / lookahead_threads=3 / sliced_threads=0 / nr=0 / decimate=1 / interlaced=0 / bluray_compat=0 / constrained_intra=0 / bframes=3 / b_pyramid=2 / b_adapt=2 / b_bias=0 / direct=3 / weightb=1 / open_gop=0 / weightp=2 / keyint=250 / keyint_min=23 / scenecut=40 / intra_refresh=0 / rc_lookahead=50 / rc=crf / mbtree=1 / crf=18.0 / qcomp=0.60 / qpmin=0 / qpmax=69 / qpstep=4 / ip_ratio=1.40 / aq=1:1.00
    Язык : English
    Default : Да
    Forced : Нет
    Цветовой диапазон : Limited
    Коэффициенты матрицы : BT.709
    Аудио #1
    Идентификатор : 4
    Формат : AC-3
    Формат/Информация : Audio Coding 3
    Расширение режима : CM (complete main)
    Параметр Endianness формата : Big
    Идентификатор кодека : A_AC3
    Продолжительность : 50 м.
    Вид битрейта : Постоянный
    Битрейт : 384 Кбит/сек
    Каналы : 6 каналов
    Расположение каналов : Front: L C R, Side: L R, LFE
    Частота : 48,0 КГц
    Частота кадров : 31,250 кадров/сек (1536 spf)
    Метод сжатия : С потерями
    Размер потока : 139 Мбайт (10%)
    Default : Нет
    Forced : Нет
    Аудио #2
    Идентификатор : 5
    Формат : AC-3
    Формат/Информация : Audio Coding 3
    Расширение режима : CM (complete main)
    Параметр Endianness формата : Big
    Идентификатор кодека : A_AC3
    Продолжительность : 50 м.
    Вид битрейта : Постоянный
    Битрейт : 384 Кбит/сек
    Каналы : 6 каналов
    Расположение каналов : Front: L C R, Side: L R, LFE
    Частота : 48,0 КГц
    Частота кадров : 31,250 кадров/сек (1536 spf)
    Метод сжатия : С потерями
    Размер потока : 139 Мбайт (10%)
    Заголовок : DD5.1 AlexFilm
    Язык : Russian
    Default : Да
    Forced : Нет
    Аудио #3
    Идентификатор : 6
    Формат : AC-3
    Формат/Информация : Audio Coding 3
    Расширение режима : CM (complete main)
    Параметр Endianness формата : Big
    Идентификатор кодека : A_AC3
    Продолжительность : 50 м.
    Вид битрейта : Постоянный
    Битрейт : 384 Кбит/сек
    Каналы : 6 каналов
    Расположение каналов : Front: L C R, Side: L R, LFE
    Частота : 48,0 КГц
    Частота кадров : 31,250 кадров/сек (1536 spf)
    Метод сжатия : С потерями
    Размер потока : 139 Мбайт (10%)
    Заголовок : DD5.1 Original
    Язык : English
    Default : Нет
    Forced : Нет
    Текст #1
    Идентификатор : 2
    Формат : UTF-8
    Идентификатор кодека : S_TEXT/UTF8
    Идентификатор кодека/Информация : UTF-8 Plain Text
    Продолжительность : 49 м.
    Битрейт : 76 бит/сек
    Count of elements : 505
    Размер потока : 28,0 Кбайт (0%)
    Default : Да
    Forced : Нет
    Текст #2
    Идентификатор : 3
    Формат : UTF-8
    Идентификатор кодека : S_TEXT/UTF8
    Идентификатор кодека/Информация : UTF-8 Plain Text
    Продолжительность : 49 м.
    Битрейт : 45 бит/сек
    Count of elements : 566
    Размер потока : 16,4 Кбайт (0%)
    Default : Нет
    Forced : Нет
    --

    Скриншоты

    ----

    Как закачать отдельный файл

    1. Открыть торрент
    2. Снять галки с тех файлов торрента, которые мы не хотим закачивать. Оставляем только на нужных нам файлах (файле).
    3. Нажать О.К.
    В клиенте utorrent
    Инструкция
    1) Открыть торрент

    2) Снять галки с тех файлов торрента, которые мы не хотим закачивать:
    * либо вручную, снимая с каждого файла галку( скрин №1)
    * либо, нажав кнопку "Снять метки (Select None)", сняв сразу со всех файлов(скрин №2)
    №1

    №2

    Оставляем только на нужных нам файлах (файле).

    3)Нажать О.К
    ------Внимание!!! 29.12. 2015. РАЗДАЧА ОБНОВЛЕНА. ФИНАЛ СЕЗОНА.ОБНОВИТЕ ТОРЕНТ ФАЙЛ.ПРИЯТНОГО ПРОСМОТРА . --Релиз от: Nikolai.Baranov & PIRATIYA --------
    Скачать .torrent

    Скачать торрент-файл бесплатно и на максимальной скорости!

    Как скачивать? · Что такое торрент? · Рейтинг и ограничения

    !ВНИМАНИЕ!
    Сайт не распространяет и не хранит электронные версии произведений, а занимается лишь лишь предоставлением доступа к создаваемому пользователями каталогу ссылок на торрент-файлы, которые содержат только списки хеш-сумм, убедительная просьба с жалобами обращаться напрямую к пользователю. Файлы для обмена на трекере предоставлены пользователями сайта, и администрация не несёт ответственности за их содержание. Просьба не заливать файлы, защищенные авторскими правами, а также файлы нелегального содержания!


    _________________

    Легко быть оптимистом, когда судьба не валит с ног тяжелыми ударами, а лишь иногда легонько шлепает по заднице.
    [Профиль] [ЛС]

    -746

    Создавать темы 30-Дек-2015 23:09 (спустя 13 дней)

           

    Топик был перенесен из форума Зарубежные сериалы в форум Зарубежные сериалы (HD Video)


    -sasha2006

    _________________
    Как бы ты высоко не летал, не забывай, с кем ты ползал..
     
    Показать сообщения:    
    Ответить на тему

    Текущее время: Сегодня, в 16:31

    Часовой пояс: GMT + 2



    Вы не можете начинать темы
    Вы не можете отвечать на сообщения
    Вы не можете редактировать свои сообщения
    Вы не можете удалять свои сообщения
    Вы не можете голосовать в опросах
    Вы не можете прикреплять файлы к сообщениям
    Вы не можете скачивать файлы