BitTorrentTracker PerecTracker.org
BitTorrentTracker PerecTracker.org
    
Регистрация  ·  Вход
 
 · 
Забыли пароль?

  • [ATV3] Пингвин нашего времени (Штефан Кромер / Stefan Krohmer ) [2015, Россия, Германия , Комедия, триллер, WEB-DL, HD (1080p)] Original

    Ответить на тему
     
    Автор Сообщение

    Flirldrerve

    Создавать темы 17-Дек-2015 14:01

           

    [Цитировать]

    Пингвин нашего времени
    -
    4.20 / 10
    -Год выпуска: 2015
    Страна: Россия, Германия
    Жанр: Комедия, триллер
    Продолжительность: 01:28:33
    Перевод: Не требуется
    Оригинальная аудиодорожка: Есть
    Cубтитры: Нет
    Режиссёр: Штефан Кромер
    Сценарий: Даниэль Ноке
    Продюсер: Алексей Гуськов, Штефан Арндт, Андреа Шутте
    Оператор: Бенедикт Нойенфельс
    Композитор: Юрий Гуржий, Симон Вахорн
    Художник: Зильке Фишер, Зильке Зоммер, Владимир Савутьков
    Монтаж: Штефан Крумбигель, Олаф Фойгтлендер
    В ролях: Люси Хайнце, Алексей Гуськов, Юрий Колокольников, Антон Пампушный, Евген Баль, Мария Семенова, Елена Ласкавая, Александр Слободяник, Анатолий Горячев, Сергей Греков
    Сборы в России: $6 985
    Мировая премьера: 21 мая 2015
    Премьера (РФ): 19 ноября 2015, «Парадиз»
    Описание: Молодая немка Виня одержима идеей найти своего возлюбленного Андрея, который внезапно исчез. В поисках Андрея она приезжает на Крайний Север России. Случайность ли, что на своем пути она встречает таинственного миллионера Всеволода Старыча, одержимого странными и даже опасными идеями?…-Качество исходника: WEB-DL 1080p
    Качество: WEB-DL
    Тип: HD (1080p)
    Контейнер: M4V
    Видео: H.264, 1920x804, 2.40:1, 4 469 Kbps, 25.000 fps
    Аудио: Русский/Оригинальная дорожка , AAC / 2.0 / 179 Kbps / 48.0 KHz
    -

    iTunes Meta Tags

    Sort Name: Пингвин нашего времени
    XID: Apple:vendor_id:2015-902855
    contentID: 1063003321
    Copyright: © 2015 X-Filme Creative Pool, ZAO Studia "F.A.F"
    Screenwriters: Даниэль Ноке
    Producers: Алексей Гуськов, Штефан Арндт, Андреа Шутте
    Director: Штефан Кромер
    Cast: Люси Хайнце, Алексей Гуськов, Юрий Колокольников, Антон Пампушный, Евген Баль, Мария Семенова, Елена Ласкавая, Александр Слободяник, Анатолий Горячев, Сергей Греков, Моника Госсманн, Андрей Лёвин, Андрей Хитрин, Артем Веселов, Елена Мелешкова
    Studio: X-Filme Creative Pool, ZAO Studia "F.A.F"
    Rating: 135
    Long Description: Молодая немка Виня одержима идеей найти своего возлюбленного Андрея, который внезапно исчез. В поисках Андрея она приезжает на Крайний Север России. Случайность ли, что на своем пути она встречает таинственного миллионера Всеволода Старыча, одержимого странными и даже опасными идеями?...
    Description: Молодая немка Виня одержима идеей найти своего возлюбленного Андрея, который внезапно исчез. В поисках Андрея она приезжает на Крайний Север России. Случайность ли, что на своем пути она встречает таинственного миллионера Всеволода Старыча, одержимого странными и даже опасными идеями?...
    Release Date: 2015-05-21T08:00:00Z
    Genre: Русское кино
    Artist: Штефан Кромер
    Name: Пингвин нашего времени

    MediaInfo

    General
    Complete name : /Users/imac/HandBrake/Pingvin.nashego.vremeni..WEB-DL.1080p.m4v
    Format : MPEG-4
    Codec ID : M4V
    File size : 2.88 GiB
    Duration : 1h 28mn
    Overall bit rate mode : Variable
    Overall bit rate : 4 653 Kbps
    Movie name : Пингвин нашего времени
    Performer : Штефан Кромер
    Director : Штефан Кромер
    Actor : Люси Хайнце / Алексей Гуськов / Юрий Колокольников / Антон Пампушный / Евген Баль / Мария Семенова / Елена Ласкавая / Александр Слободяник / Анатолий Горячев / Сергей Греков / Моника Госсманн / Андрей Лёвин / Андрей Хитрин / Артем Веселов / Елена Мелешкова
    Screenplay by : Даниэль Ноке
    Producer : Алексей Гуськов / Штефан Арндт / Андреа Шутте
    Production studio : X-Filme Creative Pool, ZAO Studia "F.A.F"
    Genre : Русское кино
    ContentType : Short Film
    Description : Молодая немка Виня одержима идеей найти своего возлюбленного Андрея, который внезапно исчез. В поисках Андрея она приезжает на Крайний Север России. Случайность ли, что на своем пути она встречает таинственного миллионера Всеволода Старыча, одержимого странными и даже опасными идеями?...
    Recorded date : UTC 2015-05-21 08:00:00
    Encoded date : UTC 2015-12-17 08:38:45
    Tagged date : UTC 2015-12-17 08:39:19
    Copyright : © 2015 X-Filme Creative Pool, ZAO Studia "F.A.F"
    Cover : Yes
    Rating : None
    Title/Sort : Пингвин нашего времени
    LongDescription : Молодая немка Виня одержима идеей найти своего возлюбленного Андрея, который внезапно исчез. В поисках Андрея она приезжает на Крайний Север России. Случайность ли, что на своем пути она встречает таинственного миллионера Всеволода Старыча, одержимого странными и даже опасными идеями?...
    AppleStoreCatalogID : 1063003321
    Vendor : Apple:vendor_id:2015-902855
    ContentRating : ru-movie|16+|375|
    Video #1
    ID : 1
    Format : AVC
    Format/Info : Advanced Video Codec
    Format profile : High@L4
    Format settings, CABAC : Yes
    Format settings, ReFrames : 5 frames
    Codec ID : avc1
    Codec ID/Info : Advanced Video Coding
    Duration : 1h 28mn
    Bit rate : 4 469 Kbps
    Width : 1 920 pixels
    Height : 804 pixels
    Display aspect ratio : 2.40:1
    Frame rate mode : Constant
    Frame rate : 25.000 fps
    Color space : YUV
    Chroma subsampling : 4:2:0
    Bit depth : 8 bits
    Scan type : Progressive
    Bits/(Pixel*Frame) : 0.116
    Stream size : 2.76 GiB (96%)
    Title : Main Program
    Language : Russian
    Encoded date : UTC 2015-12-17 08:38:45
    Tagged date : UTC 2015-12-17 08:38:54
    Color range : Limited
    Color primaries : BT.709
    Transfer characteristics : BT.709
    Matrix coefficients : BT.709
    Menus : 3,4
    Video #2
    ID : 4
    Format : JPEG
    Codec ID : jpeg
    Duration : 1h 28mn
    Bit rate mode : Variable
    Bit rate : 521 bps
    Width : 640 pixels
    Height : 268 pixels
    Display aspect ratio : 2.40:1
    Frame rate mode : Variable
    Frame rate : 0.002 fps
    Minimum frame rate : 0.002 fps
    Maximum frame rate : 0.004 fps
    Color space : YUV
    Chroma subsampling : 4:2:0
    Bit depth : 8 bits
    Compression mode : Lossy
    Bits/(Pixel*Frame) : 1.519
    Stream size : 413 KiB (0%)
    Title : Chapter Images
    Language : Russian
    Default : No
    Encoded date : UTC 2015-12-17 08:38:58
    Tagged date : UTC 2015-12-17 08:38:58
    Menu For : 1
    Audio
    ID : 2
    Format : AAC
    Format/Info : Advanced Audio Codec
    Format profile : LC
    Codec ID : 40
    Duration : 1h 28mn
    Bit rate mode : Variable
    Bit rate : 179 Kbps
    Maximum bit rate : 214 Kbps
    Channel(s) : 2 channels
    Channel positions : Front: L R
    Sampling rate : 48.0 KHz
    Frame rate : 46.875 fps (1024 spf)
    Compression mode : Lossy
    Stream size : 114 MiB (4%)
    Title : Russian Stereo
    Language : Russian
    Default : Yes
    Alternate group : 1
    Encoded date : UTC 2015-12-17 08:38:45
    Tagged date : UTC 2015-12-17 08:38:49
    Menu #1
    00:00:00.000 : Глава 1
    00:04:15.000 : Глава 2
    00:09:44.000 : Глава 3
    00:16:17.000 : Глава 4
    00:22:08.000 : Глава 5
    00:27:59.000 : Глава 6
    00:34:05.000 : Глава 7
    00:42:54.000 : Глава 8
    00:51:15.000 : Глава 9
    00:59:39.000 : Глава 10
    01:04:36.000 : Глава 11
    01:11:14.000 : Глава 12
    01:17:37.000 : Глава 13
    Menu #2
    ID : 3
    Codec ID : text
    Duration : 1h 28mn
    Language : Russian
    Encoded date : UTC 2015-12-17 08:38:54
    Tagged date : UTC 2015-12-17 08:38:54
    Menu For : 1
    00:00:00.000 : Глава 1
    00:04:15.000 : Глава 2
    00:09:44.000 : Глава 3
    00:16:17.000 : Глава 4
    00:22:08.000 : Глава 5
    00:27:59.000 : Глава 6
    00:34:05.000 : Глава 7
    00:42:54.000 : Глава 8
    00:51:15.000 : Глава 9
    00:59:39.000 : Глава 10
    01:04:36.000 : Глава 11
    01:11:14.000 : Глава 12
    01:17:37.000 : Глава 13
    Bit rate mode : VBR

    Скриншоты

    -

    Релиз подготовлен для просмотра на Apple TV, iPad, iPhone, iPod Touch.
    Для просмотра данного релиза на компьютере с ОС Windows рекомендуется использовать VLC media player
    Скачать .torrent

    Скачать торрент-файл бесплатно и на максимальной скорости!

    Как скачивать? · Что такое торрент? · Рейтинг и ограничения

    !ВНИМАНИЕ!
    Сайт не распространяет и не хранит электронные версии произведений, а занимается лишь лишь предоставлением доступа к создаваемому пользователями каталогу ссылок на торрент-файлы, которые содержат только списки хеш-сумм, убедительная просьба с жалобами обращаться напрямую к пользователю. Файлы для обмена на трекере предоставлены пользователями сайта, и администрация не несёт ответственности за их содержание. Просьба не заливать файлы, защищенные авторскими правами, а также файлы нелегального содержания!


    _________________
    [Профиль] [ЛС]
    Показать сообщения:    
    Ответить на тему

    Текущее время: Сегодня, в 12:19

    Часовой пояс: GMT + 2



    Вы не можете начинать темы
    Вы не можете отвечать на сообщения
    Вы не можете редактировать свои сообщения
    Вы не можете удалять свои сообщения
    Вы не можете голосовать в опросах
    Вы не можете прикреплять файлы к сообщениям
    Вы не можете скачивать файлы