BitTorrentTracker PerecTracker.org
BitTorrentTracker PerecTracker.org
    
Регистрация  ·  Вход
 
 · 
Забыли пароль?

  • (Ethnic) Aslan Tlebzu - Ethno-Symphony - 2013, FLAC (image+.cue) lossless

    Ответить на тему
     
    Автор Сообщение

    Columb

    Создавать темы 19-Авг-2013 09:25

           

    [Цитировать]

    Aslan Tlebzu - Ethno-Symphony
    Жанр: Ethnic
    Страна-производитель диска: Russia
    Год издания диска: 2013
    Издатель (лейбл): Звук-М
    Номер по каталогу: ZM1527
    Аудиокодек: FLAC
    Тип рипа: image+.cue
    Битрейт аудио: lossless
    Продолжительность: 64:44
    Источник: CD из личной коллекции
    Наличие сканов в содержимом раздачи: да
    Треклист:
    01. Rhythms of mountains
    02. Zafak 1
    03. Lezginka
    04. My darling
    05. Guashegaz SaveFrom.net
    06. Si Uarad SaveFrom.net
    07. Khagaudzh
    08. Zagatlyat SaveFrom.net
    09. Abaza
    10. Herdsman song
    11. Zafak 2
    12. Kafa-chikh SaveFrom.net
    13. Schyrytym SaveFrom.net
    14. Zafak 3
    15. My Adygheya (Kafa)
    16. Potpourri (bonus track)

    Лог создания рипа

    Exact Audio Copy V1.0 beta 3 from 29. August 2011
    Отчёт EAC об извлечении, выполненном 18. августа 2013, 8:12
    Aslan Tlebzu / Ethno-Symphony
    Дисковод: HL-DT-STBD-RE BH10LS30 Adapter: 0 ID: 0
    Режим чтения : Достоверность
    Использование точного потока : Да
    Отключение кэша аудио : Да
    Использование указателей C2 : Нет
    Коррекция смещения при чтении : 667
    Способность читать области Lead-in и Lead-out : Нет
    Заполнение пропущенных сэмплов тишиной : Да
    Удаление блоков с тишиной в начале и конце : Нет
    При вычислениях CRC использовались нулевые сэмплы : Да
    Интерфейс : Встроенный Win32-интерфейс для Win NT/2000
    Выходной формат : Пользовательский кодировщик
    Выбранный битрейт : 128 kBit/s
    Качество : Высокий
    Добавление ID3-тега : Нет
    Утилита сжатия : C:\Program Files\Exact Audio Copy\Flac\flac.exe
    Дополнительные параметры : -V -8 -T "Date=%year%" -T "Genre=%genre%" %source%
    TOC извлечённого CD
    Трек | Старт | Длительность | Начальный сектор | Конечный сектор
    ---------------------------------------------------------------------
    1 | 0:00.00 | 2:59.26 | 0 | 13450
    2 | 2:59.26 | 2:40.04 | 13451 | 25454
    3 | 5:39.30 | 3:19.70 | 25455 | 40449
    4 | 8:59.25 | 4:48.71 | 40450 | 62120
    5 | 13:48.21 | 3:29.06 | 62121 | 77801
    6 | 17:17.27 | 4:06.27 | 77802 | 96278
    7 | 21:23.54 | 4:07.66 | 96279 | 114869
    8 | 25:31.45 | 3:59.31 | 114870 | 132825
    9 | 29:31.01 | 4:04.05 | 132826 | 151130
    10 | 33:35.06 | 5:10.27 | 151131 | 174407
    11 | 38:45.33 | 3:22.18 | 174408 | 189575
    12 | 42:07.51 | 4:24.44 | 189576 | 209419
    13 | 46:32.20 | 3:26.51 | 209420 | 224920
    14 | 49:58.71 | 2:53.24 | 224921 | 237919
    15 | 52:52.20 | 4:22.18 | 237920 | 257587
    16 | 57:14.38 | 7:29.59 | 257588 | 291321
    Характеристики диапазона извлечения и сообщения об ошибках
    Выбранный диапазон
    Имя файла C:\shismrot\ASLAN TLEBZU [2013] [CD] Ethno-Symphony [EAC-FLAC]\Aslan Tlebzu - Ethno-Symphony.wav
    Пиковый уровень 100.0 %
    Скорость извлечения 2.0 X
    Качество диапазона 100.0 %
    CRC теста 0DAA72C9
    CRC копии 0DAA72C9
    Копирование... OK
    Ошибок не произошло
    AccurateRip: сводка
    Трек 1 отсутствует в базе данных
    Трек 2 отсутствует в базе данных
    Трек 3 отсутствует в базе данных
    Трек 4 отсутствует в базе данных
    Трек 5 отсутствует в базе данных
    Трек 6 отсутствует в базе данных
    Трек 7 отсутствует в базе данных
    Трек 8 отсутствует в базе данных
    Трек 9 отсутствует в базе данных
    Трек 10 отсутствует в базе данных
    Трек 11 отсутствует в базе данных
    Трек 12 отсутствует в базе данных
    Трек 13 отсутствует в базе данных
    Трек 14 отсутствует в базе данных
    Трек 15 отсутствует в базе данных
    Трек 16 отсутствует в базе данных
    Ни одного трека нет в базе AccurateRip
    Конец отчёта
    ==== Контрольная сумма отчёта F3102F45AA3FDAC3778225C345B2148F89A0862FD3045EBF360C0177D5569648 ====

    Содержание индексной карты (.CUE)

    REM GENRE Ethnic
    REM DATE 2013
    REM DISCID C60F2C10
    REM COMMENT "ExactAudioCopy v1.0b3"
    PERFORMER "Aslan Tlebzu"
    TITLE "Ethno-Symphony"
    FILE "Aslan Tlebzu - Ethno-Symphony.flac" WAVE
    TRACK 01 AUDIO
    TITLE "Rhythms of mountains"
    PERFORMER "Aslan Tlebzu"
    FLAGS DCP
    INDEX 01 00:00:00
    TRACK 02 AUDIO
    TITLE "Zafak 1"
    PERFORMER "Aslan Tlebzu"
    FLAGS DCP
    INDEX 00 02:57:26
    INDEX 01 02:59:26
    TRACK 03 AUDIO
    TITLE "Lezginka"
    PERFORMER "Aslan Tlebzu"
    FLAGS DCP
    INDEX 00 05:37:30
    INDEX 01 05:39:30
    TRACK 04 AUDIO
    TITLE "My darling"
    PERFORMER "Aslan Tlebzu"
    FLAGS DCP
    INDEX 00 08:57:25
    INDEX 01 08:59:25
    TRACK 05 AUDIO
    TITLE "Guashegaz"
    PERFORMER "Aslan Tlebzu"
    FLAGS DCP
    INDEX 00 13:46:21
    INDEX 01 13:48:21
    TRACK 06 AUDIO
    TITLE "Si Uarad"
    PERFORMER "Aslan Tlebzu"
    FLAGS DCP
    INDEX 00 17:15:27
    INDEX 01 17:17:27
    TRACK 07 AUDIO
    TITLE "Khagaudzh"
    PERFORMER "Aslan Tlebzu"
    FLAGS DCP
    INDEX 00 21:21:54
    INDEX 01 21:23:54
    TRACK 08 AUDIO
    TITLE "Zagatlyat"
    PERFORMER "Aslan Tlebzu"
    FLAGS DCP
    INDEX 00 25:29:45
    INDEX 01 25:31:45
    TRACK 09 AUDIO
    TITLE "Abaza"
    PERFORMER "Aslan Tlebzu"
    FLAGS DCP
    INDEX 00 29:29:01
    INDEX 01 29:31:01
    TRACK 10 AUDIO
    TITLE "Herdsman song"
    PERFORMER "Aslan Tlebzu"
    FLAGS DCP
    INDEX 00 33:33:06
    INDEX 01 33:35:06
    TRACK 11 AUDIO
    TITLE "Zafak 2"
    PERFORMER "Aslan Tlebzu"
    FLAGS DCP
    INDEX 00 38:43:33
    INDEX 01 38:45:33
    TRACK 12 AUDIO
    TITLE "Kafa-chikh"
    PERFORMER "Aslan Tlebzu"
    FLAGS DCP
    INDEX 00 42:05:51
    INDEX 01 42:07:51
    TRACK 13 AUDIO
    TITLE "Schyrytym"
    PERFORMER "Aslan Tlebzu"
    FLAGS DCP
    INDEX 00 46:30:20
    INDEX 01 46:32:20
    TRACK 14 AUDIO
    TITLE "Zafak 3"
    PERFORMER "Aslan Tlebzu"
    FLAGS DCP
    INDEX 00 49:56:71
    INDEX 01 49:58:71
    TRACK 15 AUDIO
    TITLE "My Adygheya (Kafa)"
    PERFORMER "Aslan Tlebzu"
    FLAGS DCP
    INDEX 00 52:50:20
    INDEX 01 52:52:20
    TRACK 16 AUDIO
    TITLE "Potpourri (bonus track)"
    PERFORMER "Aslan Tlebzu"
    FLAGS DCP
    INDEX 00 57:12:38
    INDEX 01 57:14:38
    Скачать .torrent

    Скачать торрент-файл бесплатно и на максимальной скорости!

    Как скачивать? · Что такое торрент? · Рейтинг и ограничения

    !ВНИМАНИЕ!
    Сайт не распространяет и не хранит электронные версии произведений, а занимается лишь лишь предоставлением доступа к создаваемому пользователями каталогу ссылок на торрент-файлы, которые содержат только списки хеш-сумм, убедительная просьба с жалобами обращаться напрямую к пользователю. Файлы для обмена на трекере предоставлены пользователями сайта, и администрация не несёт ответственности за их содержание. Просьба не заливать файлы, защищенные авторскими правами, а также файлы нелегального содержания!

    [Профиль] [ЛС]
    Показать сообщения:    
    Ответить на тему

    Текущее время: Сегодня, в 04:15

    Часовой пояс: GMT + 2



    Вы не можете начинать темы
    Вы не можете отвечать на сообщения
    Вы не можете редактировать свои сообщения
    Вы не можете удалять свои сообщения
    Вы не можете голосовать в опросах
    Вы не можете прикреплять файлы к сообщениям
    Вы не можете скачивать файлы