BitTorrentTracker PerecTracker.org
BitTorrentTracker PerecTracker.org
    
Регистрация  ·  Вход
 
 · 
Забыли пароль?

  • Інтерстеллар / Interstellar (Крістофер Нолан) [2014 р., пригодницький, фантастика, BDRip] DUB Ukr

    Ответить на тему
     
    Автор Сообщение

    older

    Создавать темы 17-Дек-2015 11:35

           

    [Цитировать]

    Інтерстеллар / Interstellar

    Рік випуску: 2014
    Країна: США, Великобританія, Канада
    Кіностудія / кінокомпанія: Paramount Pictures, Warner Bros., Legendary Pictures
    Жанр: пригодницький, фантастика
    Тривалість: 02:49:03
    Субтитри: відсутні
    Переклад: дубльований (професійний)
    Аудіодоріжка: українська-Режисер: Крістофер Нолан
    Сценарій: Джонатан Нолан, Крістофер Нолан
    Продюсер: Крістофер Нолан, Лінда Обст, Емма Томас-Світова прем'єра: 26 жовтня 2014
    Прем'єра в Україні: 6 листопада 2014, «Кіноманія»
    Обмеження за віком: немає- -Актори: Метью МакКонаґі / Matthew McConaughey, Енн Гетевей / Anne Hathaway, Джессіка Честейн / Jessica Chastain, МакКензі Фой / Mackenzie Foy, Майкл Кейн / Michael Caine, Девід Ґ'ясі / David Gyasi, Вес Бентлі / Wes Bentley-Сюжет: Головний герой картини – Купер. Він вчений-фізик і разом зі своїми колегами йому вдалося знайти чорну діру. Через цю «червоточину» дослідники намагаються навчитися долати час та простір. Кінцева мета таких небезпечних дослідів – зробити можливими подорожі у найвіддаленіші кінці космосу, що займали б якомога менше часу в подорожніх.-Формат: AVI
    Якість: BDRip
    Відео кодек: XviD
    Відео: 720x400 (16:9), 1392 kbps, 23.976 fps, 0.202 bit/pixel
    Аудіо: AC3, 48 kHz, 6 ch, 448 kbps-Джерело:

    MediaInfo

    Общее
    Полное имя                               : \Interstellar (2014) BDRip [UKR] [Hurtom].avi
    Формат                                   : AVI
    Формат/Информация                        : Audio Video Interleave
    Профиль формата                          : OpenDML
    Размер файла                             : 2,19 Гбайт
    Продолжительность                        : 2 ч. 49 м.
    Общий поток                              : 1852 Кбит/сек
    Программа кодирования                    : VirtualDubModUkr 1.5.10.2 (build 2542/release)
    Библиотека кодирования                   : VirtualDubMod build 2542/release
    Видео
    Идентификатор                            : 0
    Формат                                   : MPEG-4 Visual
    Профиль формата                          : Advanced Simple@L5
    Параметр BVOP формата                    : 1
    Параметр QPel формата                    : Нет
    Параметр GMC формата                     : Без точки перехода
    Параметр матрицы формата                 : Выборочная
    Идентификатор кодека                     : XVID
    Идентификатор кодека/Подсказка           : XviD
    Продолжительность                        : 2 ч. 49 м.
    Битрейт                                  : 1392 Кбит/сек
    Ширина                                   : 720 пикселей
    Высота                                   : 400 пикселей
    Соотношение сторон                       : 16:9
    Частота кадров                           : 23,976 кадра/сек
    Цветовое пространство                    : YUV
    Субдискретизация насыщенности            : 4:2:0
    Битовая глубина                          : 8 бит
    Тип развёртки                            : Прогрессивная
    Метод сжатия                             : С потерями
    Бит/(Пиксели*Кадры)                      : 0.202
    Размер потока                            : 1,64 Гбайт (75%)
    Библиотека кодирования                   : XviD 64
    Аудио
    Идентификатор                            : 1
    Формат                                   : AC-3
    Формат/Информация                        : Audio Coding 3
    Расширение режима                        : CM (complete main)
    Параметр Endianness формата              : Big
    Идентификатор кодека                     : 2000
    Продолжительность                        : 2 ч. 49 м.
    Вид битрейта                             : Постоянный
    Битрейт                                  : 448 Кбит/сек
    Каналы                                   : 6 каналов
    Расположение каналов                     : Front: L C R, Side: L R, LFE
    Частота                                  : 48,0 КГц
    Битовая глубина                          : 16 бит
    Метод сжатия                             : С потерями
    Размер потока                            : 542 Мбайт (24%)
    Выравнивание                             : Разделение по промежуткам
    Продолжительность промежутка             : 42  мс. (1,00 видеокадр)
    Время предзагрузки промежутка            : 500  мс.

    Скріншоти

    Скачать .torrent

    Скачать торрент-файл бесплатно и на максимальной скорости!

    Как скачивать? · Что такое торрент? · Рейтинг и ограничения

    !ВНИМАНИЕ!
    Сайт не распространяет и не хранит электронные версии произведений, а занимается лишь лишь предоставлением доступа к создаваемому пользователями каталогу ссылок на торрент-файлы, которые содержат только списки хеш-сумм, убедительная просьба с жалобами обращаться напрямую к пользователю. Файлы для обмена на трекере предоставлены пользователями сайта, и администрация не несёт ответственности за их содержание. Просьба не заливать файлы, защищенные авторскими правами, а также файлы нелегального содержания!


    _________________
    [Профиль] [ЛС]

    -746

    Создавать темы 03-Июн-2016 21:40 (спустя 5 месяцев 17 дней)

           

    Топік був перенесений з форуму Закордонне кіно українською у форум Фільми 2011-2015 українською

    rechyn

    _________________
    Как бы ты высоко не летал, не забывай, с кем ты ползал..
     
    Показать сообщения:    
    Ответить на тему

    Текущее время: Сегодня, в 05:25

    Часовой пояс: GMT + 2



    Вы не можете начинать темы
    Вы не можете отвечать на сообщения
    Вы не можете редактировать свои сообщения
    Вы не можете удалять свои сообщения
    Вы не можете голосовать в опросах
    Вы не можете прикреплять файлы к сообщениям
    Вы не можете скачивать файлы