BitTorrentTracker PerecTracker.org
BitTorrentTracker PerecTracker.org
    
Регистрация  ·  Вход
 
 · 
Забыли пароль?

  • Рога / Horns (Александр Ажа / Alexandre Aja) [2013, США, Канада, фэнтези, триллер, драма, BDRip-AVC] MVO + Sub (Rus, Eng)

    Ответить на тему
     
    Автор Сообщение

    Light

    Создавать темы 17-Дек-2015 09:49

           

    [Цитировать]

    Рога
    Horns
    «Каждый демон - бывший ангел»

    Страна: США, Канада
    Жанр: фэнтези, триллер, драма, ужасы
    Год выпуска: 2013
    Продолжительность: 02:00:09
    Перевод: Профессиональный (многоголосый, закадровый) [Лицензия R5]
    Cубтитры: русские (MartinaG), английские (Full), английские (SDH), английские (SDH-Colored)
    Оригинальная аудиодорожка: нет
    Режиссер: Александр Ажа / Alexandre Aja
    В ролях: Дэниэл Рэдклифф, Джуно Темпл, Макс Мингелла, Джо Андерсон, Келли Гарнер, Джеймс Римар, Кэтлин Куинлен, Хэзер Грэм, Дэвид Морс, Майкл Адамуэйт, Нельс Леннарсон, Дон Томпсон
    Описание:
    История простого американского парня по имени Иг Перриш, который просыпается рано утром с диким похмельем и обнаруживает, что у него на голове выросли настоящие рога.
    Вместе с рогами у героя появляется еще одно дьявольское качество: в присутствии Перриша люди начинают говорить то, что думают на самом деле, и все грязные секреты оказываются на поверхности. Теперь Иг может узнать, кто на самом деле убил его девушку, поскольку в этом преступлении обвиняют его самого, хоть и бездоказательно. Релиз:
    Автор рипа: Stalker oK
    Сэмпл
    Качество видео: BDRip-AVC [bluebird / Blu-ray Disc / 1080p]
    Формат видео: MKV
    Видео кодек: AVC
    Аудио кодек: AC3
    Видео: 1351 Кбит/сек, 948x396 (2.35:1), 23,976 кадр/сек, AVC
    Аудио: русский, 384 Кбит/сек, 48 КГц, 16 бит, 5.1, AC3
    Навигация по главам: есть

    MediaInfo

    General
    Unique ID : 219703267072482800527594045872978571880 (0xA5494F6248F5C21CB6B5BEC16408B268)
    Complete name : O:\Rips\Horns\Horns.2013.BDRip-AVC.MVO.1.45Gb.stalkerok.new-team.mkv
    Format : Matroska
    File size : 1.46 GiB
    Duration : 2h 0mn
    Overall bit rate : 1 736 Kbps
    Movie name : Horns (2013) (New-Team) (Rip by Stalker oK)
    Encoded date : UTC 2015-12-16 14:41:59
    Writing application : mkvmerge v7.9.0 ('Birds') 64bit
    Writing library : libebml v1.3.1 + libmatroska v1.4.2
    Video
    ID : 1
    Format : AVC
    Format/Info : Advanced Video Codec
    Format profile : High@L4.1
    Format settings, CABAC : Yes
    Format settings, ReFrames : 14 frames
    Codec ID : V_MPEG4/ISO/AVC
    Duration : 2h 0mn
    Bit rate : 1 351 Kbps
    Width : 948 pixels
    Height : 396 pixels
    Display aspect ratio : 2.35:1
    Frame rate : 23.976 fps
    Color space : YUV
    Chroma subsampling : 4:2:0
    Bit depth : 8 bits
    Scan type : Progressive
    Bits/(Pixel*Frame) : 0.150
    Stream size : 1.11 GiB (76%)
    Title : Horns (2013) (New-Team) (Rip by Stalker oK)
    Writing library : x264 core 148 r2638 7599210
    Encoding settings : cabac=1 / ref=14 / deblock=1:-3:-3 / analyse=0x3:0x133 / me=umh / subme=11 / psy=1 / psy_rd=1.00:0.10 / mixed_ref=1 / me_range=48 / chroma_me=1 / trellis=2 / 8x8dct=1 / cqm=0 / deadzone=21,11 / fast_pskip=0 / chroma_qp_offset=-3 / threads=12 / lookahead_threads=3 / sliced_threads=0 / nr=0 / decimate=0 / interlaced=0 / bluray_compat=0 / constrained_intra=0 / bframes=15 / b_pyramid=2 / b_adapt=2 / b_bias=0 / direct=3 / weightb=1 / open_gop=0 / weightp=2 / keyint=240 / keyint_min=23 / scenecut=40 / intra_refresh=0 / rc_lookahead=60 / rc=2pass / mbtree=0 / bitrate=1351 / ratetol=1.0 / qcomp=0.70 / qpmin=0 / qpmax=69 / qpstep=4 / cplxblur=20.0 / qblur=0.5 / vbv_maxrate=50000 / vbv_bufsize=62500 / nal_hrd=none / filler=0 / ip_ratio=1.40 / pb_ratio=1.30 / aq=3:0.90
    Audio
    ID : 2
    Format : AC-3
    Format/Info : Audio Coding 3
    Mode extension : CM (complete main)
    Codec ID : A_AC3
    Duration : 2h 0mn
    Bit rate mode : Constant
    Bit rate : 384 Kbps
    Channel(s) : 6 channels
    Channel positions : Front: L C R, Side: L R, LFE
    Sampling rate : 48.0 KHz
    Bit depth : 16 bits
    Compression mode : Lossy
    Stream size : 330 MiB (22%)
    Language : Russian
    Text #1
    ID : 3
    Format : UTF-8
    Codec ID : S_TEXT/UTF8
    Codec ID/Info : UTF-8 Plain Text
    Title : MartinaG
    Language : Russian
    Text #2
    ID : 4
    Format : UTF-8
    Codec ID : S_TEXT/UTF8
    Codec ID/Info : UTF-8 Plain Text
    Language : English
    Text #3
    ID : 5
    Format : UTF-8
    Codec ID : S_TEXT/UTF8
    Codec ID/Info : UTF-8 Plain Text
    Title : SDH
    Language : English
    Text #4
    ID : 6
    Format : UTF-8
    Codec ID : S_TEXT/UTF8
    Codec ID/Info : UTF-8 Plain Text
    Title : SDH-Colored
    Language : English
    Menu
    00:00:00.000 : en:Chapter 1
    00:05:09.600 : en:Chapter 2
    00:14:01.465 : en:Chapter 3
    00:18:22.226 : en:Chapter 4
    00:24:51.781 : en:Chapter 5
    00:31:59.334 : en:Chapter 6
    00:37:49.892 : en:Chapter 7
    00:43:56.300 : en:Chapter 8
    00:47:25.384 : en:Chapter 9
    00:54:26.388 : en:Chapter 10
    00:58:53.279 : en:Chapter 11
    01:05:22.752 : en:Chapter 12
    01:10:10.080 : en:Chapter 13
    01:16:14.820 : en:Chapter 14
    01:22:47.754 : en:Chapter 15
    01:30:13.699 : en:Chapter 16
    01:34:51.852 : en:Chapter 17
    01:43:04.595 : en:Chapter 18
    01:49:44.202 : en:Chapter 19
    01:56:15.593 : en:Chapter 20

    Скриншоты

    Скачать .torrent

    Скачать торрент-файл бесплатно и на максимальной скорости!

    Как скачивать? · Что такое торрент? · Рейтинг и ограничения

    !ВНИМАНИЕ!
    Сайт не распространяет и не хранит электронные версии произведений, а занимается лишь лишь предоставлением доступа к создаваемому пользователями каталогу ссылок на торрент-файлы, которые содержат только списки хеш-сумм, убедительная просьба с жалобами обращаться напрямую к пользователю. Файлы для обмена на трекере предоставлены пользователями сайта, и администрация не несёт ответственности за их содержание. Просьба не заливать файлы, защищенные авторскими правами, а также файлы нелегального содержания!


    _________________
    [Профиль] [ЛС]
    Показать сообщения:    
    Ответить на тему

    Текущее время: Сегодня, в 18:02

    Часовой пояс: GMT + 2



    Вы не можете начинать темы
    Вы не можете отвечать на сообщения
    Вы не можете редактировать свои сообщения
    Вы не можете удалять свои сообщения
    Вы не можете голосовать в опросах
    Вы не можете прикреплять файлы к сообщениям
    Вы не можете скачивать файлы