BitTorrentTracker PerecTracker.org
BitTorrentTracker PerecTracker.org
    
Регистрация  ·  Вход
 
 · 
Забыли пароль?

  • Арестуйте меня / Arretez-moi (Жан-Поль Лильенфельд / Jean-Paul Lilienfeld) [2013, Франция, триллер, BDRip] MVO

    Ответить на тему
     
    Автор Сообщение

    Light

    Создавать темы 16-Дек-2015 17:18

           

    [Цитировать]

    Арестуйте меня / Arretez-moi
    Страна: Франция
    Жанр: триллер
    Год выпуска: 2013
    Продолжительность: 01:39:26
    Перевод: Профессиональный (многоголосый закадровый)
    Cубтитры: нет

    Режиссер: Жан-Поль Лильенфельд / Jean-Paul Lilienfeld
    В ролях: Софи Марсо, Миу-Миу, Янн Эбонж, Марк Барбе, Валери Бодсон, Артур Бюиссен, Вадим Гудсмитс, Клодин Пеллетье, Женни Клев, Роже Де Моэрлос
    Описание: Однажды вечером женщина приходит в полицейский участок, чтобы признаться в убийстве своего мужа, совершенном десять лет назад, мужа, который издевался над ней и регулярно избивал ее. Несмотря на то, что следствие тогда пришло к выводу, что смерть была либо случайной, либо наступила в результате самоубийства, вдова покойного заявляет, что это все — дело ее рук.
    Качество видео: BDRip [2013 Арестуйте меняi.mkv]
    Формат видео: AVI
    Видео: 656x304 (2.16:1), 24 fps, XviD build 73 ~907 kbps avg, 0.19 bit/pixel
    Аудио: 48 kHz, MPEG Layer 3, 2 ch, ~128.00 kbps avg

    MediaInfo

    Общее
    Полное имя : H:\Arretez-moi.2013.bdrip_[745]_[teko].avi
    Формат : AVI
    Формат/Информация : Audio Video Interleave
    Размер файла : 743 Мбайт
    Продолжительность : 1 ч. 39 м.
    Общий поток : 1045 Кбит/сек
    Программа кодирования : VirtualDubMod 1.5.10.3 | www.virtualdub-fr.org || (build 2550/release)
    Библиотека кодирования : VirtualDubMod build 2550/release
    Видео
    Идентификатор : 0
    Формат : MPEG-4 Visual
    Профиль формата : Advanced Simple@L5
    Параметр BVOP формата : 2
    Параметр QPel формата : Нет
    Параметр GMC формата : Без точки перехода
    Параметр матрицы формата : Выборочная
    Идентификатор кодека : XVID
    Идентификатор кодека/Подсказка : XviD
    Продолжительность : 1 ч. 39 м.
    Битрейт : 908 Кбит/сек
    Ширина : 656 пикселей
    Высота : 304 пикселя
    Соотношение сторон : 2,2:1
    Частота кадров : 24,000 кадра/сек
    Цветовое пространство : YUV
    Субдискретизация насыщенности : 4:2:0
    Битовая глубина : 8 бит
    Тип развёртки : Прогрессивная
    Метод сжатия : С потерями
    Бит/(Пиксели*Кадры) : 0.190
    Размер потока : 646 Мбайт (87%)
    Библиотека кодирования : XviD 73
    Аудио
    Идентификатор : 1
    Формат : MPEG Audio
    Версия формата : Version 1
    Профиль формата : Layer 3
    Идентификатор кодека : 55
    Идентификатор кодека/Подсказка : MP3
    Продолжительность : 1 ч. 39 м.
    Вид битрейта : Постоянный
    Битрейт : 128 Кбит/сек
    Каналы : 2 канала
    Частота : 48,0 КГц
    Метод сжатия : С потерями
    Размер потока : 91,0 Мбайт (12%)
    Выравнивание : Соединение по промежуткам
    Продолжительность промежутка : 42 мс. (1,00 видеокадр)
    Время предзагрузки промежутка : 504 мс.
    Библиотека кодирования : LAME3.98r
    Настройки программы : -m s -V 4 -q 2 -lowpass 17 -b 128

    Скриншоты

    Релиз группы:

    -
    -
    Скачать .torrent

    Скачать торрент-файл бесплатно и на максимальной скорости!

    Как скачивать? · Что такое торрент? · Рейтинг и ограничения

    !ВНИМАНИЕ!
    Сайт не распространяет и не хранит электронные версии произведений, а занимается лишь лишь предоставлением доступа к создаваемому пользователями каталогу ссылок на торрент-файлы, которые содержат только списки хеш-сумм, убедительная просьба с жалобами обращаться напрямую к пользователю. Файлы для обмена на трекере предоставлены пользователями сайта, и администрация не несёт ответственности за их содержание. Просьба не заливать файлы, защищенные авторскими правами, а также файлы нелегального содержания!


    _________________
    [Профиль] [ЛС]
    Показать сообщения:    
    Ответить на тему

    Текущее время: Сегодня, в 10:11

    Часовой пояс: GMT + 2



    Вы не можете начинать темы
    Вы не можете отвечать на сообщения
    Вы не можете редактировать свои сообщения
    Вы не можете удалять свои сообщения
    Вы не можете голосовать в опросах
    Вы не можете прикреплять файлы к сообщениям
    Вы не можете скачивать файлы