Register  ·  Log in
Forgot password?

  • От снега до снега (Юрий Петров) [1968, мелодрама, DVB]

    Reply to topic
    Author Message


    Post 16-Dec-2015 14:06



    От снега до снега
    Жанр: мелодрама
    Год выпуска: 1968
    Продолжительность: 01:28:11
    Режиссёр: Юрий Петров
    В ролях: Надежда Романина,Александр Збруев,Галина Рыжкова,Владимир Русанов,Нина Кондакова
    Описание: После института Анна приезжает на далекую северную метеостанцию, где знакомится со своей напарницей и местным лесорубом, которые любят друг друга. Однажды утром Анна проснется и увидит, что ее друзья уехали, оставив ее зимовать в одиночестве.
    Качество видео: DVB
    Формат видео: MPEG-PS
    Видео: MPEG2, 720x576, 4:3, 25.00fps, 2344 Kbps
    Аудио: MP2 2.0, 48 kHz, 192 kbps


    Complete name : От снега до снега (1968) DVB.mpg
    Format : MPEG-PS
    File size : 1.59 GiB
    Duration : 1h 28mn
    Overall bit rate mode : Variable
    Overall bit rate : 2 588 Kbps
    ID : 224 (0xE0)
    Format : MPEG Video
    Format version : Version 2
    Format profile : Main@Main
    Format settings, BVOP : Yes
    Format settings, Matrix : Custom
    Format settings, GOP : Variable
    Format settings, picture structure : Frame
    Duration : 1h 28mn
    Bit rate mode : Variable
    Bit rate : 2 344 Kbps
    Maximum bit rate : 15.0 Mbps
    Width : 720 pixels
    Height : 576 pixels
    Display aspect ratio : 4:3
    Frame rate : 25.000 fps
    Standard : PAL
    Color space : YUV
    Chroma subsampling : 4:2:0
    Bit depth : 8 bits
    Scan type : Interlaced
    Scan order : Top Field First
    Compression mode : Lossy
    Bits/(Pixel*Frame) : 0.226
    Time code of first frame : 00:00:00:00
    Time code source : Group of pictures header
    GOP, Open/Closed : Open
    Stream size : 1.44 GiB (91%)
    GOP, Open/Closed of first frame : Closed
    ID : 192 (0xC0)
    Format : MPEG Audio
    Format version : Version 1
    Format profile : Layer 2
    Duration : 1h 28mn
    Bit rate mode : Constant
    Bit rate : 192 Kbps
    Channel(s) : 2 channels
    Sampling rate : 48.0 KHz
    Compression mode : Lossy
    Delay relative to video : 8ms
    Stream size : 121 MiB (7%)


    Download .torrent

    Download free and at maximum speed!

    How to Download? · What is a torrent? · Ratings and Limitations

    The site does not extend and does not store electronic(digital) versions of products, and only gives access to a reference catalogue created by users on torrent-files which contain only lists of the hash-sums, the earnest entreaty, with complaints(abuse) to access directly to the user. Files for an exchange on tracker are given by users of a site, and the administration does not bear the responsibility for their maintenance. The request to not fill in the files protected by copyrights, and also files of the illegal maintenance!

    [Profile] [PM]
    Display posts from previous:    
    Reply to topic

    The time now is: Today 15:17

    All times are GMT + 3 Hours

    You cannot post new topics in this forum
    You cannot reply to topics in this forum
    You cannot edit your posts in this forum
    You cannot delete your posts in this forum
    You cannot vote in polls in this forum
    You cannot attach files in this forum
    You cannot download files in this forum