BitTorrentTracker PerecTracker.org
BitTorrentTracker PerecTracker.org
    
Регистрация  ·  Вход
 
 · 
Забыли пароль?

  • Идеальный парень / The Perfect Guy (Дэвид М. Розенталь / David M. Rosenthal) [2015, США, триллер, драма, HDRip] VO

    Ответить на тему
     
    Автор Сообщение

    rechyn

    Создавать темы 16-Дек-2015 13:06

           

    [Цитировать]

    Идеальный парень / The Perfect Guy
    Страна: США
    Жанр: триллер, драма
    Год выпуска: 2015
    Продолжительность: 01:39:32-Перевод: Одноголосный закадровый, Павел Морозов
    Cубтитры: нет
    Оригинальная аудиодорожка: нет-Режиссер: Дэвид М. Розенталь / David M. Rosenthal-В ролях: Санаа Лэтэн, Майкл Или, Моррис Честнат, Л. Скотт Колдуэлл, Чарльз С. Даттон, Джон Гец, Тесс Харпер, Кэтрин Моррис, Рутина Уэсли, Холт МакКэллани-Описание: Казалось бы, у Ли Вон идеальная жизнь: хорошая работа и любящий парень. В свои 36 она готова сделать решающий шаг — создать семью. Но Дэйв, ее молодой человек, так не считает, он все еще боится обязательств. Это, в конечном счете, приводит их пару к разрыву.
    В то же время Ли встречает обаятельного незнакомца Картера. Он заботится о ее семье и друзьях, поэтому отношения молодых людей развиваются стремительно. Однако, его гипер опека со временем становится слишком навязчивой, даже зловещей. Когда Ли разрывает отношения, ее бывший любовник становится врагом. Ей приходится придумать хитрый план, чтобы окончательно избавиться от него.-Сэмпл: http://sendfile.su/1183595
    Качество видео: HDRip
    Формат видео: AVI
    Видео: 720x304 (2.37:1), 23.976 fps, XviD build 73 ~1836 kbps avg, 0.35 bit/pixel
    Аудио: 48 kHz, MPEG Layer 3, 2 ch, ~128.00 kbps avg

    MediaInfo

    Формат : AVI
    Формат/Информация : Audio Video Interleave
    Размер файла : 1,37 Гбайт
    Продолжительность : 1 ч. 39 м.
    Общий поток : 1974 Кбит/сек
    Программа кодирования : VirtualDubMod 1.5.10.2 (build 2540/release)
    Библиотека кодирования : VirtualDubMod build 2540/release
    Видео
    Идентификатор : 0
    Формат : MPEG-4 Visual
    Профиль формата : Advanced Simple@L5
    Параметр BVOP формата : 1
    Параметр QPel формата : Нет
    Параметр GMC формата : Без точки перехода
    Параметр матрицы формата : Выборочная
    Идентификатор кодека : XVID
    Идентификатор кодека/Подсказка : XviD
    Продолжительность : 1 ч. 39 м.
    Битрейт : 1837 Кбит/сек
    Ширина : 720 пикселей
    Высота : 304 пикселя
    Соотношение сторон : 2,35:1
    Частота кадров : 23,976 (23976/1000) кадра/сек
    Цветовое пространство : YUV
    Субдискретизация насыщенности : 4:2:0
    Битовая глубина : 8 бит
    Тип развёртки : Прогрессивная
    Метод сжатия : С потерями
    Бит/(Пиксели*Кадры) : 0.350
    Размер потока : 1,28 Гбайт (93%)
    Библиотека кодирования : XviD 73
    Аудио
    Идентификатор : 1
    Формат : MPEG Audio
    Версия формата : Version 1
    Профиль формата : Layer 3
    Режим : Joint stereo
    Расширение режима : MS Stereo
    Идентификатор кодека : 55
    Идентификатор кодека/Подсказка : MP3
    Продолжительность : 1 ч. 39 м.
    Вид битрейта : Постоянный
    Битрейт : 128 Кбит/сек
    Каналы : 2 канала
    Частота : 48,0 КГц
    Метод сжатия : С потерями
    Размер потока : 91,1 Мбайт (6%)
    Выравнивание : Соединение по промежуткам
    Продолжительность промежутка : 42 мс. (1,00 видеокадр)
    Время предзагрузки промежутка : 504 мс.

    Скриншот c названием фильма

    Скриншоты




    Скачать .torrent

    Скачать торрент-файл бесплатно и на максимальной скорости!

    Как скачивать? · Что такое торрент? · Рейтинг и ограничения

    !ВНИМАНИЕ!
    Сайт не распространяет и не хранит электронные версии произведений, а занимается лишь лишь предоставлением доступа к создаваемому пользователями каталогу ссылок на торрент-файлы, которые содержат только списки хеш-сумм, убедительная просьба с жалобами обращаться напрямую к пользователю. Файлы для обмена на трекере предоставлены пользователями сайта, и администрация не несёт ответственности за их содержание. Просьба не заливать файлы, защищенные авторскими правами, а также файлы нелегального содержания!


    _________________
    [Профиль] [ЛС]
    Показать сообщения:    
    Ответить на тему

    Текущее время: Сегодня, в 08:05

    Часовой пояс: GMT + 2



    Вы не можете начинать темы
    Вы не можете отвечать на сообщения
    Вы не можете редактировать свои сообщения
    Вы не можете удалять свои сообщения
    Вы не можете голосовать в опросах
    Вы не можете прикреплять файлы к сообщениям
    Вы не можете скачивать файлы