BitTorrentTracker PerecTracker.org
BitTorrentTracker PerecTracker.org
    
Регистрация  ·  Вход
 
 · 
Забыли пароль?

  • Цветы на чердаке / Flowers in the Attic (Дебора Чоу / Deborah Chow) [2013, Канада, США, Психологическая драма, трагедия, WEB-DLRip] VO (ViruseProject)

    Ответить на тему
     
    Автор Сообщение

    Light

    Создавать темы 16-Дек-2015 13:06

           

    [Цитировать]

    Цветы на чердаке / Flowers in the Attic
    Совместное производство: Канада, США
    Жанр: Психологическая драма, трагедия
    Год выпуска: 2013
    Продолжительность: 01:29:59
    Перевод: Одноголосый закадровый (ViruseProject)
    Cубтитры: отсутствуют
    Оригинальная аудиодорожка: нет
    Режиссёр: Дебора Чоу / Deborah Chow
    Актёры: Хэзер Грэм, Эллен Бёрстин, Кирнан Шипка, Мэйсон Дай, Ава Телек, Максвелл Ковач, Дилан Брюс, Чад Виллетт, Бо Дэниелс, Лаура Джэй и др.
    Аннотация: У Корин Доллагэнгер скоропостижно скончался любимый муж. Для неё и четырёх детей наступают тяжёлые времена. Она осталась без работы, и без средств к существованию, и не знает что делать... Она вынуждена была вместе с детьми перебраться в дом своих родителей Фоксвортов, людей не бедных, но ненормальных и жестоких моральных уродов...

    Качество видео: WEB-DLRip
    Формат видео: AVI
    Video: 720x400 (1.80:1), 23.976 fps, XviD build 50 ~2126 kbps avg, 0.31 bit/pixel
    Audio: 48 kHz, AC3 Dolby Digital, 2/0 (L,R) ch, ~224 kbps

    AviInfo

    File: Flowers_in_the_Attic_2013_WEB-DLRip_[perectracker.org].aviTitle: Flowers_in_the_Attic_2013_WEB-DLRip_[perectracker.org]Author: OGORODNIKOFFFCopyleft: perectracker.orgGenre: Драма, трагедияCategory: ТелефильмComment: Дата рипа 15 декабря 2015 годаFilesize: 1519.24 Mb ( 1 593 042 944 bytes )Play length: 01:29:59.485 (129458 frames)Subtitles: Not PresentVideo: 720x400 (1.80:1), 23.976 fps, XviD build 50 ~2126 kbps avg, 0.31 bit/pixelAudio: 48 kHz, AC3 Dolby Digital, 2/0 (L,R) ch, ~224 kbps

    MediaInfo

    ОбщееПолное имя : S:\Flowers_in_the_Attic_2013_WEB-DLRip_[perectracker.org].aviФормат : AVIФормат/Информация : Audio Video InterleaveРазмер файла : 1,48 ГбайтПродолжительность : 1 ч. 29 м.Общий поток : 2360 Кбит/секНазвание фильма : Flowers_in_the_Attic_2013_WEB-DLRip_[perectracker.org]Режиссёр : OGORODNIKOFFFЖанр : Драма, трагедияПрограмма кодирования : VirtualDubModRus 1.5.10.2 (build 2542/release)Формат оригинала/Имя : ТелефильмПравообладатель : perectracker.orgПримечание : Дата рипа 15 декабря 2015 года
    ВидеоИдентификатор : 0Формат : MPEG-4 VisualПрофиль формата : Advanced Simple@L5Параметр BVOP формата : 1Параметр QPel формата : НетПараметр GMC формата : Без точки переходаПараметр матрицы формата : Default (MPEG)Идентификатор кодека : DX50Идентификатор кодека/Подсказка : DivX 5Продолжительность : 1 ч. 29 м.Битрейт : 2127 Кбит/секШирина : 720 пикселейВысота : 400 пикселейСоотношение сторон : 16:9Частота кадров : 23,976 кадра/секЦветовое пространство : YUVСубдискретизация насыщенности : 4:2:0Битовая глубина : 8 битТип развёртки : ПрогрессивнаяМетод сжатия : С потерямиБит/(Пиксели*Кадры) : 0.308Размер потока : 1,34 Гбайт (90%)Библиотека кодирования : XviD 1.2.1 (UTC 2008-12-04)
    АудиоИдентификатор : 1Формат : AC-3Формат/Информация : Audio Coding 3Расширение режима : CM (complete main)Параметр Endianness формата : BigИдентификатор кодека : 2000Продолжительность : 1 ч. 29 м.Вид битрейта : ПостоянныйБитрейт : 224 Кбит/секКаналы : 2 каналаРасположение каналов : Front: L RЧастота : 48,0 КГцБитовая глубина : 16 битМетод сжатия : С потерямиРазмер потока : 144 Мбайт (9%)Выравнивание : Разделение по промежуткамПродолжительность промежутка : 42 мс. (1,00 видеокадр)Время предзагрузки промежутка : 500 мс.

    Скриншот c названием фильма

    Скриншоты

    Время раздачи - по возможности.
    Скачать .torrent

    Скачать торрент-файл бесплатно и на максимальной скорости!

    Как скачивать? · Что такое торрент? · Рейтинг и ограничения

    !ВНИМАНИЕ!
    Сайт не распространяет и не хранит электронные версии произведений, а занимается лишь лишь предоставлением доступа к создаваемому пользователями каталогу ссылок на торрент-файлы, которые содержат только списки хеш-сумм, убедительная просьба с жалобами обращаться напрямую к пользователю. Файлы для обмена на трекере предоставлены пользователями сайта, и администрация не несёт ответственности за их содержание. Просьба не заливать файлы, защищенные авторскими правами, а также файлы нелегального содержания!


    _________________
    [Профиль] [ЛС]
    Показать сообщения:    
    Ответить на тему

    Текущее время: Сегодня, в 16:32

    Часовой пояс: GMT + 2



    Вы не можете начинать темы
    Вы не можете отвечать на сообщения
    Вы не можете редактировать свои сообщения
    Вы не можете удалять свои сообщения
    Вы не можете голосовать в опросах
    Вы не можете прикреплять файлы к сообщениям
    Вы не можете скачивать файлы