BitTorrentTracker PerecTracker.org
BitTorrentTracker PerecTracker.org
    
Регистрация  ·  Вход
 
 · 
Забыли пароль?

  • Двійник / The Double (Річард Айоаде) [2013 р., комедія, драма, трилер, BDRip] MVO (ААА-sound) Ukr

    Ответить на тему
     
    Автор Сообщение

    older

    Создавать темы 16-Дек-2015 12:01

           

    [Цитировать]

    Двійник / The Double

    Рік випуску: 2013
    Країна: Великобританія
    Кіностудія / кінокомпанія: Alcove Entertainment, Attercop Productions, British Film Institute (BFI)
    Жанр: комедія, драма, трилер
    Тривалість: 01:33:12
    Субтитри: відсутні
    Переклад: багатоголосий, закадровий (професійний) - ААА-sound
    Аудіодоріжка: українська-Режисер: Річард Айоаде
    Сценарій: Еві Корін, Річард Айоаде, Федір Достоєвський
    Продюсер: Аміна Думав, Робін Фокс, Чарльз Антоніоз-Світова прем'єра: 7 вересня 2013
    Прем'єра в Україні: 17 квітня 2014, «ArtHouse Traffic»
    Обмеження за віком: немає- -Актори: Джесі Айзенберґ, Міа Васіковська, Волес Шоун, Ясмін Пейдж, Ноа Тейлор, Джеймс Фокс, Кеті Моріарті, Філіс Сомервіль, Ґебріель Дауні, Джон Коркс-Сюжет: Головний герой - боязкий клерк, якого зневажає власна мати й ігнорує дівчина його мрії, працює у футуристичній організації. В контору, де він працює, приходить новий самовпевнений і харизматичний співробітник, який є його точною фізичною копією. Двійник поступово прибирає до рук життя героя.-Формат: AVI
    Якість: BDRip
    Відео кодек: XviD
    Відео: 704x384 (1,85:1), 1764 kbps, 23.976 fps, 0.272 bit/pixel
    Аудіо: AC3, 48 kHz, 6 ch, 448 kbps-Джерело:

    Реліз

    Ролі озвучили: Дмитро Завадський, Юлія Перенчук, Юрій Ребрик, Олена Узлюк, Андрій Альохін, Тетяна Зіновенко, Олександр Єфімов.
    Фільм озвучено студією: ААА-sound у 2014 році на замовлення компанії Артхаус Трафік.

    MediaInfo

    Общее
    Полное имя                               : \The Double (2013) BDRip [ukr] [Hurtom].avi
    Формат                                   : AVI
    Формат/Информация                        : Audio Video Interleave
    Размер файла                             : 1,45 Гбайт
    Продолжительность                        : 1 ч. 33 м.
    Общий поток                              : 2221 Кбит/сек
    Программа кодирования                    : VirtualDubModUkr 1.5.10.2 (build 2542/release)
    Библиотека кодирования                   : VirtualDubMod build 2542/release
    Видео
    Идентификатор                            : 0
    Формат                                   : MPEG-4 Visual
    Профиль формата                          : Advanced Simple@L5
    Параметр BVOP формата                    : 1
    Параметр QPel формата                    : Нет
    Параметр GMC формата                     : Без точки перехода
    Параметр матрицы формата                 : Выборочная
    Идентификатор кодека                     : XVID
    Идентификатор кодека/Подсказка           : XviD
    Продолжительность                        : 1 ч. 33 м.
    Битрейт                                  : 1764 Кбит/сек
    Ширина                                   : 704 пикселя
    Высота                                   : 384 пикселя
    Соотношение сторон                       : 1,85:1
    Частота кадров                           : 23,976 кадра/сек
    Цветовое пространство                    : YUV
    Субдискретизация насыщенности            : 4:2:0
    Битовая глубина                          : 8 бит
    Тип развёртки                            : Прогрессивная
    Метод сжатия                             : С потерями
    Бит/(Пиксели*Кадры)                      : 0.272
    Размер потока                            : 1,15 Гбайт (79%)
    Библиотека кодирования                   : XviD 73
    Аудио
    Идентификатор                            : 1
    Формат                                   : AC-3
    Формат/Информация                        : Audio Coding 3
    Расширение режима                        : CM (complete main)
    Параметр Endianness формата              : Big
    Идентификатор кодека                     : 2000
    Продолжительность                        : 1 ч. 33 м.
    Вид битрейта                             : Постоянный
    Битрейт                                  : 448 Кбит/сек
    Каналы                                   : 6 каналов
    Расположение каналов                     : Front: L C R, Side: L R, LFE
    Частота                                  : 48,0 КГц
    Битовая глубина                          : 16 бит
    Метод сжатия                             : С потерями
    Размер потока                            : 299 Мбайт (20%)
    Выравнивание                             : Разделение по промежуткам
    Продолжительность промежутка             : 42  мс. (1,00 видеокадр)
    Время предзагрузки промежутка            : 500  мс.

    Скріншоти

    Скачать .torrent

    Скачать торрент-файл бесплатно и на максимальной скорости!

    Как скачивать? · Что такое торрент? · Рейтинг и ограничения

    !ВНИМАНИЕ!
    Сайт не распространяет и не хранит электронные версии произведений, а занимается лишь лишь предоставлением доступа к создаваемому пользователями каталогу ссылок на торрент-файлы, которые содержат только списки хеш-сумм, убедительная просьба с жалобами обращаться напрямую к пользователю. Файлы для обмена на трекере предоставлены пользователями сайта, и администрация не несёт ответственности за их содержание. Просьба не заливать файлы, защищенные авторскими правами, а также файлы нелегального содержания!


    _________________
    [Профиль] [ЛС]

    -746

    Создавать темы 03-Июн-2016 21:40 (спустя 5 месяцев 18 дней)

           

    Топік був перенесений з форуму Закордонне кіно українською у форум Фільми 2011-2015 українською

    rechyn

    _________________
    Как бы ты высоко не летал, не забывай, с кем ты ползал..
     
    Показать сообщения:    
    Ответить на тему

    Текущее время: Сегодня, в 17:55

    Часовой пояс: GMT + 2



    Вы не можете начинать темы
    Вы не можете отвечать на сообщения
    Вы не можете редактировать свои сообщения
    Вы не можете удалять свои сообщения
    Вы не можете голосовать в опросах
    Вы не можете прикреплять файлы к сообщениям
    Вы не можете скачивать файлы