BitTorrentTracker PerecTracker.org
BitTorrentTracker PerecTracker.org
    
Регистрация  ·  Вход
 
 · 
Забыли пароль?

  • Агенти U.N.C.L.E. / The Man from U.N.C.L.E. (Гай Річі) [2015 р., бойовик, комедія, пригоди, BDRip-AVC] DUB (Postmodern) Ukr

    Ответить на тему
     
    Автор Сообщение

    older

    Создавать темы 16-Дек-2015 08:36

           

    [Цитировать]

    Агенти U.N.C.L.E. / The Man from U.N.C.L.E.

    Рік випуску: 2015
    Країна: США, Велика Британія
    Кіностудія / кінокомпанія: Warner Bros. Pictures, RatPac-Dune Entertainment, Ritchie/Wigram Productions, Davis Entertainment
    Жанр: бойовик, комедія, пригоди
    Тривалість: 01:56:29
    Субтитри: українська - ФОРСОВАНІ (звичайні та кольорові), тип: програмні (м'які), формат: srt
    Переклад: дубльований (професійний) - Postmodern
    Аудіодоріжка: українська-Режисер: Гай Річі
    Сценарій: Гай Річі, Лайонел Вігрема, Сем Рольф
    Продюсер: Стів Кларк-Холл, Джон Девіс, Гай Річі-Світова прем'єра: 2 серпня 2015
    Прем'єра в Україні: 13 серпня 2015, «Кіноманія»
    Обмеження за віком: 12+- -Актори: Генрі Кавілл, Армі Хаммер, Алісія Вікандер, Елізабет Дебікі, Х'ю Грант, Лука Кальвані, Сільвестр Грот, Джаред Харріс-Сюжет: Події фільму відбуваються в 60-х роках, в період так званої Холодної Війни. Коли світу загрожує небезпека, навіть найзапекліші противники об'єднуються, щоб його врятувати. Це агент ЦРУ Наполеон Соло і оперативник КДБ Ілля Курякін. Разом вони повинні знайти голову таємної міжнародної організації, яка займається незаконними постачаннями ядерної зброї і новітніх технологій. Адже подібні дії можуть призвести до глобального розколу між державами. У агентів є зачіпка - вони вистежили дочку голови злочинницької організації...-Формат: MKV
    Якість: BDRip-AVC
    Відео кодек: H.264
    Відео: 936x390 (2,40:1), 1412 kbps, 23.976 fps, 0.161 bit/pixel
    Аудіо: AC3, 48 kHz, 2 ch, 192 kbps-Джерело: &

    Реліз

    Автор ріпу: Stalker oK
    Автор субтитрів: BASTERD-94
    Джерело озвучення: iTunes

    MediaInfo

    Общее
    Уникальный идентификатор                 : 185006961461970307713852899388996329768 (0x8B2F0B71750EFBCCBEB8F558F7AA2128)
    Полное имя                               : \The Man from U.N.C.L.E. (2015) [Ukr] BDRip-AVC [Hurtom & New-Team].mkv
    Формат                                   : Matroska
    Версия формата                           : Version 2
    Размер файла                             : 1,31 Гбайт
    Продолжительность                        : 1 ч. 56 м.
    Общий поток                              : 1606 Кбит/сек
    Название фильма                          : Агенти U.N.C.L.E. / The Man from U.N.C.L.E. (2015) BDRip-AVC
    Дата кодирования                         : UTC 2015-12-13 17:56:19
    Программа кодирования                    : mkvmerge v5.0.1 ('Es ist Sommer') built on Oct  9 2011 11:55:43
    Библиотека кодирования                   : libebml v1.2.2 + libmatroska v1.3.0
    Видео
    Идентификатор                            : 1
    Формат                                   : AVC
    Формат/Информация                        : Advanced Video Codec
    Профиль формата                          : High@L4.1
    Параметр CABAC формата                   : Да
    Параметр ReFrames формата                : 12 кадров
    Идентификатор кодека                     : V_MPEG4/ISO/AVC
    Продолжительность                        : 1 ч. 56 м.
    Битрейт                                  : 1412 Кбит/сек
    Ширина                                   : 936 пикселей
    Высота                                   : 390 пикселей
    Соотношение сторон                       : 2,40:1
    Режим частоты кадров                     : Постоянный
    Частота кадров                           : 23,976 кадра/сек
    Цветовое пространство                    : YUV
    Субдискретизация насыщенности            : 4:2:0
    Битовая глубина                          : 8 бит
    Тип развёртки                            : Прогрессивная
    Бит/(Пиксели*Кадры)                      : 0.161
    Размер потока                            : 1,12 Гбайт (86%)
    Заголовок                                : BASTERD-94 (Hurtom) & Stalker oK (New-Team)
    Библиотека кодирования                   : x264 core 146 r2538kMod 121396c
    Настройки программы                      : cabac=1 / ref=12 / deblock=1:-3:-3 / analyse=0x3:0x133 / me=umh / subme=11 / psy=1 / fade_compensate=0.00 / psy_rd=1.00:0.10 / mixed_ref=1 / me_range=48 / chroma_me=1 / trellis=2 / 8x8dct=1 / cqm=0 / deadzone=21,11 / fast_pskip=0 / chroma_qp_offset=-3 / threads=12 / lookahead_threads=3 / sliced_threads=0 / nr=0 / decimate=0 / interlaced=0 / bluray_compat=0 / constrained_intra=0 / fgo=0 / bframes=14 / b_pyramid=2 / b_adapt=2 / b_bias=0 / direct=3 / weightb=1 / open_gop=0 / weightp=2 / keyint=240 / keyint_min=23 / scenecut=40 / intra_refresh=0 / rc_lookahead=60 / rc=2pass / mbtree=0 / bitrate=1412 / ratetol=1.0 / qcomp=0.70 / qpmin=0 / qpmax=69 / qpstep=4 / cplxblur=20.0 / qblur=0.5 / vbv_maxrate=50000 / vbv_bufsize=62500 / nal_hrd=none / filler=0 / ip_ratio=1.40 / pb_ratio=1.30 / aq=3:0.95
    Default                                  : Да
    Forced                                   : Да
    Аудио
    Идентификатор                            : 2
    Формат                                   : AC-3
    Формат/Информация                        : Audio Coding 3
    Расширение режима                        : CM (complete main)
    Параметр Endianness формата              : Big
    Идентификатор кодека                     : A_AC3
    Продолжительность                        : 1 ч. 56 м.
    Вид битрейта                             : Постоянный
    Битрейт                                  : 192 Кбит/сек
    Каналы                                   : 2 канала
    Расположение каналов                     : Front: L R
    Частота                                  : 48,0 КГц
    Битовая глубина                          : 16 бит
    Метод сжатия                             : С потерями
    Размер потока                            : 160 Мбайт (12%)
    Заголовок                                : AC3 2.0 @ 192 Kbps - UKR (Dub) | «Postmodern» - iTunes
    Язык                                     : Ukrainian
    Default                                  : Да
    Forced                                   : Да
    Текст #1
    Идентификатор                            : 3
    Формат                                   : UTF-8
    Идентификатор кодека                     : S_TEXT/UTF8
    Идентификатор кодека/Информация          : UTF-8 Plain Text
    Заголовок                                : Forced @ Subtitles by BASTERD-94 (Hurtom)
    Язык                                     : Ukrainian
    Default                                  : Да
    Forced                                   : Да
    Текст #2
    Идентификатор                            : 4
    Формат                                   : UTF-8
    Идентификатор кодека                     : S_TEXT/UTF8
    Идентификатор кодека/Информация          : UTF-8 Plain Text
    Заголовок                                : Forced-COLORED @ Subtitles by BASTERD-94 (Hurtom)
    Язык                                     : Ukrainian
    Default                                  : Нет
    Forced                                   : Нет

    Скріншоти

    Скачать .torrent

    Скачать торрент-файл бесплатно и на максимальной скорости!

    Как скачивать? · Что такое торрент? · Рейтинг и ограничения

    !ВНИМАНИЕ!
    Сайт не распространяет и не хранит электронные версии произведений, а занимается лишь лишь предоставлением доступа к создаваемому пользователями каталогу ссылок на торрент-файлы, которые содержат только списки хеш-сумм, убедительная просьба с жалобами обращаться напрямую к пользователю. Файлы для обмена на трекере предоставлены пользователями сайта, и администрация не несёт ответственности за их содержание. Просьба не заливать файлы, защищенные авторскими правами, а также файлы нелегального содержания!


    _________________
    [Профиль] [ЛС]
    Показать сообщения:    
    Ответить на тему

    Текущее время: Сегодня, в 10:26

    Часовой пояс: GMT + 2



    Вы не можете начинать темы
    Вы не можете отвечать на сообщения
    Вы не можете редактировать свои сообщения
    Вы не можете удалять свои сообщения
    Вы не можете голосовать в опросах
    Вы не можете прикреплять файлы к сообщениям
    Вы не можете скачивать файлы