BitTorrentTracker PerecTracker.org
BitTorrentTracker PerecTracker.org
    
Регистрация  ·  Вход
 
 · 
Забыли пароль?

  • Перевізник. Спадщина / The Transporter Refueled (Камілль Деламарре) [2015 р., екшн, кримінальний, трилер, BDRip-AVC] MVO (MEGOGO.NET) Ukr + Original + Sub Eng

    Ответить на тему
     
    Автор Сообщение

    older

    Создавать темы 16-Дек-2015 07:00

           

    [Цитировать]

    Перевізник. Спадщина / The Transporter Refueled

    Рік випуску: 2015
    Країна: Франція, Китай, Бельгія
    Кіностудія / кінокомпанія: EuropaCorp, TF1 Films Production, Fundamental Films
    Жанр: екшн, кримінальний, трилер
    Тривалість: 01:35:54
    Субтитри: англійська, тип: програмні (м'які), формат: srt
    Переклад: багатоголосий, закадровий (професійний) - MEGOGO.NET
    Аудіодоріжка: українська, англійська-Режисер: Камілль Деламарре
    Сценарій: Люк Бессон, Адам Купер, Білл Колладж
    Продюсер: Люк Бессон, Грегорі Уанон-Світова прем'єра: 25 серпня 2015
    Прем'єра в Україні: 10 вересня 2015
    Обмеження за віком: немає- -Актори: Ед Скрейн / Ed Skrein, Рей Стівенсон / Ray Stevenson, Лоан Чабанол / Loan Chabanol, Ґабріелла Райт / Gabriella Wright, Татьяна Пайкович / Tatiana Pajkovic, Радівойє Буквич / Radivoje Bukvic, Ноемі Ленуар / Noémie Lenoir, Самір Ґесмі / Samir Guesmi-Сюжет: Френк Мартін, колишній найманець спецназу, живе менш небезпечним життям. Він транспортує посилки для сумнівних клієнтів. Чи справді ця робота має у собі менше небезпеки? Батько Френка відвідує його на півдні Франції, але їх сімейне дозвілля змінюється на гірше, коли колишній найманець зв'язується з Анною і її трьома помічницями. Вони збираються організувати пограбування століття. Френку Мартіну доведеться використати весь свій минулий досвід, знання швидкого водіння і автомобілів, щоб випередити головну фігуру - російського злодія, і вижити в небезпечній шаховій партії з групою прекрасних жінок...-Формат: MKV
    Якість: BDRip-AVC
    Відео кодек: H.264
    Відео: 1024х424 (2,40:1), 2185 kbps, 23.976 fps, 0.210 bit/pixel
    Аудіо 1: AC3, 48 kHz, 2 ch, 192 kbps - MEGOGO.NET
    Аудіо 2: AC3, 48 kHz, 6 ch, 448 kbps - Original-Джерело:

    MediaInfo

    Общее
    Уникальный идентификатор                 : 178094388171733416858529505574922511986 (0x85FBBB444977225E9C6AF11692006672)
    Полное имя                               : \The Transporter Refueled (2015) BDRip-AVC [ukr, eng, sub eng] [Hurtom].mkv
    Формат                                   : Matroska
    Версия формата                           : Version 4 / Version 2
    Размер файла                             : 1,89 Гбайт
    Продолжительность                        : 1 ч. 35 м.
    Общий поток                              : 2825 Кбит/сек
    Название фильма                          : The.Transporter.Refueled.2015.BDRip.AVC.Rus.Eng
    Дата кодирования                         : UTC 2015-12-14 12:44:26
    Программа кодирования                    : mkvmerge v6.6.0 ('The Edge Of The In Between') built on Dec  1 2013 17:55:00
    Библиотека кодирования                   : libebml v1.3.0 + libmatroska v1.4.1
    DURATION                                 : 01:35:11.202000000
    NUMBER_OF_FRAMES                         : 1203
    NUMBER_OF_BYTES                          : 38509
    _STATISTICS_WRITING_APP                  : mkvmerge v8.3.0 ('Over the Horizon') 64bit
    _STATISTICS_WRITING_DATE_UTC             : 2015-12-10 23:05:23
    _STATISTICS_TAGS                         : BPS DURATION NUMBER_OF_FRAMES NUMBER_OF_BYTES
    Видео
    Идентификатор                            : 1
    Формат                                   : AVC
    Формат/Информация                        : Advanced Video Codec
    Профиль формата                          : High@L4.1
    Параметр CABAC формата                   : Да
    Параметр ReFrames формата                : 12 кадров
    Идентификатор кодека                     : V_MPEG4/ISO/AVC
    Продолжительность                        : 1 ч. 35 м.
    Битрейт                                  : 2185 Кбит/сек
    Ширина                                   : 1024 пикселя
    Высота                                   : 424 пикселя
    Соотношение сторон                       : 2,40:1
    Режим частоты кадров                     : Постоянный
    Частота кадров                           : 23,976 кадра/сек
    Цветовое пространство                    : YUV
    Субдискретизация насыщенности            : 4:2:0
    Битовая глубина                          : 8 бит
    Тип развёртки                            : Прогрессивная
    Бит/(Пиксели*Кадры)                      : 0.210
    Размер потока                            : 1,43 Гбайт (75%)
    Заголовок                                : The Transporter Refueled (2015) BDRip [UKR] [Hurtom]
    Библиотека кодирования                   : x264 core 146 r2538 121396c
    Настройки программы                      : cabac=1 / ref=12 / deblock=1:-3:-3 / analyse=0x3:0x113 / me=umh / subme=11 / psy=1 / psy_rd=1.00:0.10 / mixed_ref=1 / me_range=32 / chroma_me=1 / trellis=2 / 8x8dct=1 / cqm=0 / deadzone=21,11 / fast_pskip=0 / chroma_qp_offset=-3 / threads=6 / lookahead_threads=2 / sliced_threads=0 / nr=0 / decimate=1 / interlaced=0 / bluray_compat=0 / constrained_intra=0 / bframes=8 / b_pyramid=2 / b_adapt=2 / b_bias=0 / direct=3 / weightb=1 / open_gop=0 / weightp=2 / keyint=240 / keyint_min=23 / scenecut=40 / intra_refresh=0 / rc=2pass / mbtree=0 / bitrate=2185 / ratetol=1.0 / qcomp=0.60 / qpmin=0 / qpmax=69 / qpstep=4 / cplxblur=20.0 / qblur=0.5 / ip_ratio=1.40 / pb_ratio=1.30 / aq=1:1.00
    Язык                                     : English
    Default                                  : Да
    Forced                                   : Нет
    Аудио #1
    Идентификатор                            : 2
    Формат                                   : AC-3
    Формат/Информация                        : Audio Coding 3
    Расширение режима                        : CM (complete main)
    Параметр Endianness формата              : Big
    Идентификатор кодека                     : A_AC3
    Продолжительность                        : 1 ч. 35 м.
    Вид битрейта                             : Постоянный
    Битрейт                                  : 192 Кбит/сек
    Каналы                                   : 2 канала
    Расположение каналов                     : Front: L R
    Частота                                  : 48,0 КГц
    Битовая глубина                          : 16 бит
    Метод сжатия                             : С потерями
    Размер потока                            : 132 Мбайт (7%)
    Заголовок                                : Dub | DD 2.0 @ 192 kbps - MEGOGO.NET
    Язык                                     : Ukrainian
    Default                                  : Да
    Forced                                   : Нет
    Аудио #2
    Идентификатор                            : 3
    Формат                                   : AC-3
    Формат/Информация                        : Audio Coding 3
    Расширение режима                        : CM (complete main)
    Параметр Endianness формата              : Big
    Идентификатор кодека                     : A_AC3
    Продолжительность                        : 1 ч. 35 м.
    Вид битрейта                             : Постоянный
    Битрейт                                  : 448 Кбит/сек
    Каналы                                   : 6 каналов
    Расположение каналов                     : Front: L C R, Side: L R, LFE
    Частота                                  : 48,0 КГц
    Битовая глубина                          : 16 бит
    Метод сжатия                             : С потерями
    Размер потока                            : 307 Мбайт (16%)
    Заголовок                                : Original
    Язык                                     : English
    Default                                  : Нет
    Forced                                   : Нет
    Текст
    Идентификатор                            : 4
    Формат                                   : UTF-8
    Идентификатор кодека                     : S_TEXT/UTF8
    Идентификатор кодека/Информация          : UTF-8 Plain Text
    Язык                                     : English
    Default                                  : Нет
    Forced                                   : Нет
    Меню
    00:00:00.000                             : en:00:00:00.000
    00:03:29.042                             : en:00:03:29.042
    00:06:43.278                             : en:00:06:43.278
    00:11:22.599                             : en:00:11:22.599
    00:15:01.651                             : en:00:15:01.651
    00:20:21.512                             : en:00:20:21.512
    00:24:49.905                             : en:00:24:49.905
    00:27:03.664                             : en:00:27:03.664
    00:29:29.643                             : en:00:29:29.643
    00:32:56.600                             : en:00:32:56.600
    00:35:48.605                             : en:00:35:48.605
    00:37:35.879                             : en:00:37:35.879
    00:41:53.845                             : en:00:41:53.845
    00:48:09.887                             : en:00:48:09.887
    00:52:44.536                             : en:00:52:44.536
    00:57:42.793                             : en:00:57:42.793
    01:01:01.658                             : en:01:01:01.658
    01:06:43.541                             : en:01:06:43.541
    01:10:50.204                             : en:01:10:50.204
    01:13:06.048                             : en:01:13:06.048
    01:18:27.244                             : en:01:18:27.244
    01:20:18.397                             : en:01:20:18.397
    01:21:53.408                             : en:01:21:53.408
    01:24:16.885                             : en:01:24:16.885
    01:27:00.132                             : en:01:27:00.132
    01:28:45.070                             : en:01:28:45.070
    01:30:07.110                             : en:01:30:07.110

    Скріншоти

    Скачать .torrent

    Скачать торрент-файл бесплатно и на максимальной скорости!

    Как скачивать? · Что такое торрент? · Рейтинг и ограничения

    !ВНИМАНИЕ!
    Сайт не распространяет и не хранит электронные версии произведений, а занимается лишь лишь предоставлением доступа к создаваемому пользователями каталогу ссылок на торрент-файлы, которые содержат только списки хеш-сумм, убедительная просьба с жалобами обращаться напрямую к пользователю. Файлы для обмена на трекере предоставлены пользователями сайта, и администрация не несёт ответственности за их содержание. Просьба не заливать файлы, защищенные авторскими правами, а также файлы нелегального содержания!


    _________________
    [Профиль] [ЛС]
    Показать сообщения:    
    Ответить на тему

    Текущее время: Сегодня, в 00:00

    Часовой пояс: GMT + 2



    Вы не можете начинать темы
    Вы не можете отвечать на сообщения
    Вы не можете редактировать свои сообщения
    Вы не можете удалять свои сообщения
    Вы не можете голосовать в опросах
    Вы не можете прикреплять файлы к сообщениям
    Вы не можете скачивать файлы