BitTorrentTracker PerecTracker.org
BitTorrentTracker PerecTracker.org
    
Регистрация  ·  Вход
 
 · 
Забыли пароль?

  • Звуки шуму / Sound of Noise (Ула Сімонссон, Юханнес Шерне Нільссон) [2010 р., трилер, мелодрама, комедія, кримінальний, музичний, BDRip] MVO (ІНТЕР) Ukr + Swe

    Ответить на тему
     
    Автор Сообщение

    older

    Создавать темы 15-Дек-2015 19:07

           

    [Цитировать]

    Звуки шуму / Sound of Noise

    Рік випуску: 2010
    Країна: Швеція, Франція
    Кіностудія / кінокомпанія: Bliss, DFM, dfm Fiktion, Film i Skåne, Film i Väst, Nordisk Film A/S, Wild Bunch
    Жанр: трилер, мелодрама, комедія, кримінальний, музичний
    Тривалість: 01:42:12
    Субтитри: відсутні
    Переклад: багатоголосий, закадровий (професійний) - ІНТЕР
    Аудіодоріжка: українська, шведська-Режисер: Ула Сімонссон, Юханнес Шерне Нільссон
    Сценарій: Ула Сімонссон, Юханнес шерней Нільссон, Джим Бірмант
    Продюсер: Джессіка Аск, Крістоф Одегіс, Джим Бірмант-Світова прем'єра: 18 травня 2010
    Обмеження за віком: немає- -Актори: Бенгт Нілссон, Сенна Перссон, Магнус Берьєсон, Маркус Боїдж, Йоханнес Бьєрк, Фредерік Майр, Андерс Вестергард, Аксель Бергендаль-Сюжет: Офіцер поліції Амадей Варнебрінг народився у музичній сім'ї з багаторічними традиціями, що виховала чимало великих музикантів. Сам Амадей ненавидить музику. Його нове завдання - гірше не буває. Група з шести ексцентричних барабанщиків під керівництвом геніальної Санни починає повномасштабну атаку на місто. Вони використовують будівлі, різноманітні механізми та безперервний шум вулиць в якості своїх музичних інструментів. Ця нова форма мистецтва від музичних терористів призводить до хаосу і дезорганізації.
    У Амадея немає вибору: йому доведеться вступити у боротьбу в світі ритмів і музики, який він раніше всіляко уникав. Його почуття до Санни не полегшують виконання поставленого перед ним завдання.-Формат: AVI
    Якість: BDRip
    Відео кодек: XviD
    Відео: 720x304 (2,35:1), 1458 kbps, 24,000 fps, 0.278 bit/pixel
    Аудіо 1: AC3, 48 kHz, 2 ch, 192 kbps - ІНТЕР
    Аудіо 2: AC3, 48 kHz, 6 ch, 384 kbps - Swe-Джерело:

    MediaInfo

    Общее
    Полное имя                               : \Sound of Noise 2010 [Ukr,Swe] BDRip [Hurtom].avi
    Формат                                   : AVI
    Формат/Информация                        : Audio Video Interleave
    Размер файла                             : 1,46 Гбайт
    Продолжительность                        : 1 ч. 42 м.
    Общий поток                              : 2046 Кбит/сек
    Программа кодирования                    : VirtualDubMod 1.5.10.2 (build 2540/release)
    Библиотека кодирования                   : VirtualDubMod build 2540/release
    Видео
    Идентификатор                            : 0
    Формат                                   : MPEG-4 Visual
    Профиль формата                          : Advanced Simple@L5
    Параметр BVOP формата                    : 1
    Параметр QPel формата                    : Нет
    Параметр GMC формата                     : Без точки перехода
    Параметр матрицы формата                 : Default (MPEG)
    Режим смешивания                         : Сжатый битовый поток
    Идентификатор кодека                     : XVID
    Идентификатор кодека/Подсказка           : XviD
    Продолжительность                        : 1 ч. 42 м.
    Битрейт                                  : 1458 Кбит/сек
    Ширина                                   : 720 пикселей
    Высота                                   : 304 пикселя
    Соотношение сторон                       : 2,35:1
    Частота кадров                           : 24,000 кадра/сек
    Цветовое пространство                    : YUV
    Субдискретизация насыщенности            : 4:2:0
    Битовая глубина                          : 8 бит
    Тип развёртки                            : Прогрессивная
    Метод сжатия                             : С потерями
    Бит/(Пиксели*Кадры)                      : 0.278
    Размер потока                            : 1,04 Гбайт (71%)
    Библиотека кодирования                   : XviD 1.2.1 (UTC 2008-12-04)
    Аудио #1
    Идентификатор                            : 1
    Формат                                   : AC-3
    Формат/Информация                        : Audio Coding 3
    Расширение режима                        : CM (complete main)
    Параметр Endianness формата              : Big
    Идентификатор кодека                     : 2000
    Продолжительность                        : 1 ч. 42 м.
    Вид битрейта                             : Постоянный
    Битрейт                                  : 192 Кбит/сек
    Каналы                                   : 2 канала
    Расположение каналов                     : Front: L R
    Частота                                  : 48,0 КГц
    Битовая глубина                          : 16 бит
    Метод сжатия                             : С потерями
    Размер потока                            : 140 Мбайт (9%)
    Выравнивание                             : Разделение по промежуткам
    Продолжительность промежутка             : 42  мс. (1,00 видеокадр)
    Время предзагрузки промежутка            : 500  мс.
    Аудио #2
    Идентификатор                            : 2
    Формат                                   : AC-3
    Формат/Информация                        : Audio Coding 3
    Расширение режима                        : CM (complete main)
    Параметр Endianness формата              : Big
    Идентификатор кодека                     : 2000
    Продолжительность                        : 1 ч. 41 м.
    Вид битрейта                             : Постоянный
    Битрейт                                  : 384 Кбит/сек
    Каналы                                   : 6 каналов
    Расположение каналов                     : Front: L C R, Side: L R, LFE
    Частота                                  : 48,0 КГц
    Битовая глубина                          : 16 бит
    Метод сжатия                             : С потерями
    Размер потока                            : 279 Мбайт (19%)
    Выравнивание                             : Разделение по промежуткам
    Продолжительность промежутка             : 42  мс. (1,01 видеокадр)
    Время предзагрузки промежутка            : 500  мс.

    Скріншоти

    Скачать .torrent

    Скачать торрент-файл бесплатно и на максимальной скорости!

    Как скачивать? · Что такое торрент? · Рейтинг и ограничения

    !ВНИМАНИЕ!
    Сайт не распространяет и не хранит электронные версии произведений, а занимается лишь лишь предоставлением доступа к создаваемому пользователями каталогу ссылок на торрент-файлы, которые содержат только списки хеш-сумм, убедительная просьба с жалобами обращаться напрямую к пользователю. Файлы для обмена на трекере предоставлены пользователями сайта, и администрация не несёт ответственности за их содержание. Просьба не заливать файлы, защищенные авторскими правами, а также файлы нелегального содержания!


    _________________
    [Профиль] [ЛС]
    Показать сообщения:    
    Ответить на тему

    Текущее время: Сегодня, в 20:42

    Часовой пояс: GMT + 2



    Вы не можете начинать темы
    Вы не можете отвечать на сообщения
    Вы не можете редактировать свои сообщения
    Вы не можете удалять свои сообщения
    Вы не можете голосовать в опросах
    Вы не можете прикреплять файлы к сообщениям
    Вы не можете скачивать файлы