BitTorrentTracker PerecTracker.org
BitTorrentTracker PerecTracker.org
    
Регистрация  ·  Вход
 
 · 
Забыли пароль?

  • [ATV3] Переводчик (Алексей Нужный) [2015, Россия, Криминал, драма, WEB-DL, HD (1080p)] Original

    Ответить на тему
     
    Автор Сообщение

    Flirldrerve

    Создавать темы 15-Дек-2015 16:05

           

    [Цитировать]

    Переводчик
    -
    4.175 / 10
    -Год выпуска: 2015
    Страна: Россия
    Жанр: Криминал, драма
    Продолжительность: 01:09:18
    Перевод: Не требуется
    Оригинальная аудиодорожка: Есть
    Cубтитры: Нет
    Режиссёр: Алексей Нужный
    Сценарий: Николай Ковбас, Алексей Нужный
    Продюсер: Руслан Сорокин, Александр Цекало, Илья Комаров
    Оператор: Дмитрий Кувшинов
    В ролях: Леонид Ярмольник, Александр Ильин мл., Мария Андреева, Дмитрий Астрахан, Семен Трескунов, Луиза-Габриэла Бровина, Клара Лаго, Михаил Шамигулов, Станислав Дужников, Елена Плаксина
    Сборы в России: $152 152
    Премьера (РФ): 12 ноября 2015, «Централ Партнершип»
    Описание: Воскресный папа отправляется в командировку вместе со своим двенадцатилетним сыном. Оказавшись свидетелем криминальной разборки, которую затеял главарь местной банды, сын попадает в больницу. Спасти жизнь мальчику может операция за границей. Но она стоит больших денег. Отец решается на отчаянный шаг — он соглашается исполнить три желания главаря банды.-Качество исходника: WEB-DL 1080p
    Качество: WEB-DL
    Тип: HD (1080p)
    Контейнер: M4V
    Видео: H.264, 1920x806, 2.40:1, 5 120 Kbps, 25.000 fps
    Аудио: Русский/Оригинальная дорожка , AAC / 2.0 / 157 Kbps / 48.0 KHz
    -

    iTunes Meta Tags

    Sort Name: Переводчик
    XID: Apple:vendor_id:2015-805091
    contentID: 805091
    Screenwriters: Николай Ковбас, Алексей Нужный
    Producers: Руслан Сорокин, Александр Цекало, Илья Комаров
    Director: Алексей Нужный
    Cast: Леонид Ярмольник, Александр Ильин мл., Мария Андреева, Дмитрий Астрахан, Семен Трескунов, Луиза-Габриэла Бровина, Клара Лаго, Михаил Шамигулов, Станислав Дужников, Елена Плаксина
    Long Description: Воскресный папа отправляется в командировку вместе со своим двенадцатилетним сыном. Оказавшись свидетелем криминальной разборки, которую затеял главарь местной банды, сын попадает в больницу. Спасти жизнь мальчику может операция за границей. Но она стоит больших денег. Отец решается на отчаянный шаг - он соглашается исполнить три желания главаря банды.
    Description: Воскресный папа отправляется в командировку вместе со своим двенадцатилетним сыном. Оказавшись свидетелем криминальной разборки, которую затеял главарь местной банды, сын попадает в больницу. Спасти жизнь мальчику может операция за границей. Но она стоит больших денег. Отец решается на отчаянный шаг - он соглашается исполнить три желания главаря банды.
    Release Date: 2015-01-01T08:00:00Z
    Artist: Алексей Нужный
    Name: Переводчик

    MediaInfo

    General
    Complete name : /Users/imac/HandBrake/Perevodchik.WEB-DL.1080p.m4v
    Format : MPEG-4
    Codec ID : M4V
    File size : 2.55 GiB
    Duration : 1h 9mn
    Overall bit rate mode : Variable
    Overall bit rate : 5 260 Kbps
    Movie name : Переводчик
    Performer : Алексей Нужный
    Director : Алексей Нужный
    Actor : Леонид Ярмольник / Александр Ильин мл. / Мария Андреева / Дмитрий Астрахан / Семен Трескунов / Луиза-Габриэла Бровина / Клара Лаго / Михаил Шамигулов / Станислав Дужников / Елена Плаксина
    Screenplay by : Николай Ковбас / Алексей Нужный
    Producer : Руслан Сорокин / Александр Цекало / Илья Комаров
    ContentType : Short Film
    Description : Воскресный папа отправляется в командировку вместе со своим двенадцатилетним сыном. Оказавшись свидетелем криминальной разборки, которую затеял главарь местной банды, сын попадает в больницу. Спасти жизнь мальчику может операция за границей. Но она стоит больших денег. Отец решается на отчаянный шаг - он соглашается исполнить три желания главаря банды.
    Recorded date : UTC 2015-01-01 08:00:00
    Encoded date : UTC 2015-12-15 09:55:03
    Tagged date : UTC 2015-12-15 09:56:02
    Cover : Yes
    Rating : None
    Title/Sort : Переводчик
    LongDescription : Воскресный папа отправляется в командировку вместе со своим двенадцатилетним сыном. Оказавшись свидетелем криминальной разборки, которую затеял главарь местной банды, сын попадает в больницу. Спасти жизнь мальчику может операция за границей. Но она стоит больших денег. Отец решается на отчаянный шаг - он соглашается исполнить три желания главаря банды.
    AppleStoreCatalogID : 805091
    Vendor : Apple:vendor_id:2015-805091
    Video
    ID : 1
    Format : AVC
    Format/Info : Advanced Video Codec
    Format profile : High@L4
    Format settings, CABAC : Yes
    Format settings, ReFrames : 4 frames
    Codec ID : avc1
    Codec ID/Info : Advanced Video Coding
    Duration : 1h 9mn
    Bit rate : 5 120 Kbps
    Width : 1 920 pixels
    Height : 806 pixels
    Display aspect ratio : 2.40:1
    Frame rate mode : Constant
    Frame rate : 25.000 fps
    Color space : YUV
    Chroma subsampling : 4:2:0
    Bit depth : 8 bits
    Scan type : Progressive
    Bits/(Pixel*Frame) : 0.132
    Stream size : 2.47 GiB (97%)
    Title : Main Program
    Writing library : x264 core 142
    Encoding settings : cabac=1 / ref=3 / deblock=1:0:0 / analyse=0x3:0x113 / me=hex / subme=7 / psy=1 / psy_rd=1.00:0.00 / mixed_ref=1 / me_range=16 / chroma_me=1 / trellis=1 / 8x8dct=1 / cqm=0 / deadzone=21,11 / fast_pskip=1 / chroma_qp_offset=-2 / threads=36 / lookahead_threads=6 / sliced_threads=0 / nr=0 / decimate=1 / interlaced=0 / bluray_compat=0 / constrained_intra=0 / bframes=6 / b_pyramid=2 / b_adapt=1 / b_bias=0 / direct=1 / weightb=1 / open_gop=0 / weightp=2 / keyint=200 / keyint_min=20 / scenecut=0 / intra_refresh=0 / rc_lookahead=40 / rc=2pass / mbtree=1 / bitrate=5120 / ratetol=1.0 / qcomp=0.60 / qpmin=0 / qpmax=69 / qpstep=4 / cplxblur=20.0 / qblur=0.5 / vbv_maxrate=7680 / vbv_bufsize=20480 / nal_hrd=none / filler=0 / ip_ratio=1.40 / aq=1:1.00
    Language : Russian
    Encoded date : UTC 2015-12-15 09:55:03
    Tagged date : UTC 2015-12-15 09:55:29
    Audio
    ID : 2
    Format : AAC
    Format/Info : Advanced Audio Codec
    Format profile : LC
    Codec ID : 40
    Duration : 1h 9mn
    Bit rate mode : Variable
    Bit rate : 157 Kbps
    Maximum bit rate : 248 Kbps
    Channel(s) : 2 channels
    Channel positions : Front: L R
    Sampling rate : 48.0 KHz
    Frame rate : 46.875 fps (1024 spf)
    Compression mode : Lossy
    Stream size : 78.1 MiB (3%)
    Title : Russian Stereo
    Language : Russian
    Default : Yes
    Alternate group : 1
    Encoded date : UTC 2015-12-15 09:55:03
    Tagged date : UTC 2015-12-15 09:55:06

    Скриншоты

    -

    Релиз подготовлен для просмотра на Apple TV, iPad, iPhone, iPod Touch.
    Для просмотра данного релиза на компьютере с ОС Windows рекомендуется использовать VLC media player
    Скачать .torrent

    Скачать торрент-файл бесплатно и на максимальной скорости!

    Как скачивать? · Что такое торрент? · Рейтинг и ограничения

    !ВНИМАНИЕ!
    Сайт не распространяет и не хранит электронные версии произведений, а занимается лишь лишь предоставлением доступа к создаваемому пользователями каталогу ссылок на торрент-файлы, которые содержат только списки хеш-сумм, убедительная просьба с жалобами обращаться напрямую к пользователю. Файлы для обмена на трекере предоставлены пользователями сайта, и администрация не несёт ответственности за их содержание. Просьба не заливать файлы, защищенные авторскими правами, а также файлы нелегального содержания!


    _________________
    [Профиль] [ЛС]
    Показать сообщения:    
    Ответить на тему

    Текущее время: Сегодня, в 03:07

    Часовой пояс: GMT + 2



    Вы не можете начинать темы
    Вы не можете отвечать на сообщения
    Вы не можете редактировать свои сообщения
    Вы не можете удалять свои сообщения
    Вы не можете голосовать в опросах
    Вы не можете прикреплять файлы к сообщениям
    Вы не можете скачивать файлы